<?xml version="1.0" encoding="UTF-8" standalone="no"?>
<svg
   xmlns:dc="http://purl.org/dc/elements/1.1/"
   xmlns:cc="http://creativecommons.org/ns#"
   xmlns:rdf="http://www.w3.org/1999/02/22-rdf-syntax-ns#"
   xmlns:svg="http://www.w3.org/2000/svg"
   xmlns="http://www.w3.org/2000/svg"
   height="88.51487"
   width="483.07431"
   xml:space="preserve"
   viewBox="0 0 483.0743 88.514865"
   y="0px"
   x="0px"
   id="Capa_1"
   version="1.1"><metadata
   id="metadata1487"><rdf:RDF><cc:Work
       rdf:about=""><dc:format>image/svg+xml</dc:format><dc:type
         rdf:resource="http://purl.org/dc/dcmitype/StillImage" /><dc:title></dc:title></cc:Work></rdf:RDF></metadata><defs
   id="defs1485" />
<font
   vert-adv-y="90"
   vert-origin-y="90"
   vert-origin-x="45"
   horiz-origin-y="0"
   horiz-origin-x="0"
   id="font1418"
   horiz-adv-x="1000">
<!-- Copyright 2011 The Montserrat Project Authors (julieta.ulanovsky@gmail.com) -->
<!-- Copyright: Copyright 2021 Adobe System Incorporated. All rights reserved. -->
<font-face
   id="font-face2"
   underline-thickness="50"
   underline-position="-75"
   units-per-em="1000"
   font-family="Montserrat-SemiBold" />
<missing-glyph
   id="missing-glyph4"
   d="M40,0l0,700l507,0l0,-700M120,70l347,0l0,560l-347,0z"
   horiz-adv-x="587" />
<glyph
   id="glyph6"
   horiz-adv-x="234"
   unicode=" " />
<glyph
   id="glyph8"
   horiz-adv-x="234"
   unicode=" " />
<glyph
   id="glyph10"
   d="M594,0l-55,136l-324,0l-55,-136l-163,0l304,700l163,0l299,-700M267,263l221,0l-110,272z"
   horiz-adv-x="759"
   unicode="A" />
<glyph
   id="glyph12"
   d="M594,0l-55,136l-324,0l-55,-136l-163,0l304,700l163,0l299,-700M267,263l221,0l-110,272M415,916l136,-53l-136,-110l-112,10z"
   horiz-adv-x="759"
   unicode="Á" />
<glyph
   id="glyph14"
   d="M594,0l-55,136l-324,0l-55,-136l-163,0l304,700l163,0l299,-700M267,263l221,0l-110,272M380,850C396,850 409,856 420,867C431,878 437,892 438,910l98,0C534,863 519,826 490,798C461,770 425,756 380,756C335,756 298,770 269,798C240,826 225,863 224,910l98,0C323,892 329,878 340,867C351,856 364,850 380,850z"
   horiz-adv-x="759"
   unicode="Ă" />
<glyph
   id="glyph16"
   d="M1182,0l-55,136l-324,0l-55,-136l-163,0l304,700l163,0l299,-700M855,263l221,0l-110,272M380,830C397,830 411,835 422,844C433,853 440,864 441,878l97,0C536,837 521,804 492,779C463,754 425,742 380,742C334,742 297,754 268,779C239,804 224,837 222,878l97,0C320,864 327,853 338,844C349,835 363,830 380,830M426,1040l112,-70l-150,-82l-98,27z"
   horiz-adv-x="759"
   unicode="Ắ" />
<glyph
   id="glyph18"
   d="M594,0l-55,136l-324,0l-55,-136l-163,0l304,700l163,0l299,-700M267,263l221,0l-110,272M457,-156C457,-181 449,-202 434,-218C418,-234 398,-242 373,-242C349,-242 329,-234 314,-217C298,-201 290,-181 290,-156C290,-131 298,-110 314,-94C329,-78 349,-70 373,-70C398,-70 418,-78 434,-94C449,-110 457,-131 457,-156M374,850C390,850 403,856 414,867C425,878 431,892 432,910l98,0C528,863 513,826 484,798C455,770 419,756 374,756C329,756 292,770 263,798C234,826 219,863 218,910l98,0C317,892 323,878 334,867C345,856 358,850 374,850z"
   horiz-adv-x="759"
   unicode="Ặ" />
<glyph
   id="glyph20"
   d="M1175,0l-55,136l-324,0l-55,-136l-163,0l304,700l163,0l299,-700M848,263l221,0l-110,272M383,830C400,830 414,835 425,844C436,853 443,864 444,878l97,0C539,837 524,804 495,779C466,754 428,742 383,742C337,742 300,754 271,779C242,804 227,837 225,878l97,0C323,864 330,853 341,844C352,835 366,830 383,830M325,1040l135,-125l-97,-27l-151,82z"
   horiz-adv-x="759"
   unicode="Ằ" />
<glyph
   id="glyph22"
   d="M1172,0l-55,136l-324,0l-55,-136l-163,0l304,700l163,0l299,-700M845,263l221,0l-110,272M380,830C397,830 411,835 422,844C433,853 440,864 441,878l97,0C536,837 521,804 492,779C463,754 425,742 380,742C334,742 297,754 268,779C239,804 224,837 222,878l97,0C320,864 327,853 338,844C349,835 363,830 380,830M467,988C467,953 443,920 396,887l-66,26C354,930 366,946 366,961C366,967 364,972 360,975C356,978 351,979 344,979C333,979 323,976 314,969l-40,58C307,1048 341,1058 375,1058C404,1058 426,1051 443,1038C459,1025 467,1008 467,988z"
   horiz-adv-x="759"
   unicode="Ẳ" />
<glyph
   id="glyph24"
   d="M1196,0l-55,136l-324,0l-55,-136l-163,0l304,700l163,0l299,-700M869,263l221,0l-110,272M381,831C398,831 412,836 423,845C434,854 441,865 442,879l97,0C537,838 522,805 493,780C464,755 426,743 381,743C335,743 298,755 269,780C240,805 225,838 223,879l97,0C321,865 328,854 339,845C350,836 364,831 381,831M463,920C447,920 432,922 418,927C404,932 388,938 369,947C367,948 360,951 349,956C337,961 327,963 320,963C309,963 301,960 296,953C291,946 289,936 289,923l-76,0C213,964 220,995 234,1018C248,1040 271,1051 303,1051C319,1051 335,1049 350,1044C365,1039 381,1033 399,1024C422,1013 438,1008 447,1008C458,1008 465,1011 470,1018C475,1025 477,1035 477,1048l77,0C554,1007 547,975 533,953C518,931 495,920 463,920z"
   horiz-adv-x="759"
   unicode="Ẵ" />
<glyph
   id="glyph26"
   d="M594,0l-55,136l-324,0l-55,-136l-163,0l304,700l163,0l299,-700M267,263l221,0l-110,272M559,759l-122,0l-57,65l-58,-65l-121,0l108,148l141,0z"
   horiz-adv-x="759"
   unicode="Â" />
<glyph
   id="glyph28"
   d="M1205,0l-55,136l-324,0l-55,-136l-163,0l304,700l163,0l299,-700M878,263l221,0l-110,272M578,752l-134,0l-64,57l-65,-57l-134,0l111,115l174,0M425,1049l112,-70l-150,-82l-98,27z"
   horiz-adv-x="759"
   unicode="Ấ" />
<glyph
   id="glyph30"
   d="M594,0l-55,136l-324,0l-55,-136l-163,0l304,700l163,0l299,-700M267,263l221,0l-110,272M457,-156C457,-181 449,-202 434,-218C418,-234 398,-242 373,-242C349,-242 329,-234 314,-217C298,-201 290,-181 290,-156C290,-131 298,-110 314,-94C329,-78 349,-70 373,-70C398,-70 418,-78 434,-94C449,-110 457,-131 457,-156M553,759l-122,0l-57,65l-58,-65l-121,0l108,148l141,0z"
   horiz-adv-x="759"
   unicode="Ậ" />
<glyph
   id="glyph32"
   d="M1192,0l-55,136l-324,0l-55,-136l-163,0l304,700l163,0l299,-700M865,263l221,0l-110,272M578,752l-134,0l-64,57l-65,-57l-134,0l111,115l174,0M322,1049l135,-125l-97,-27l-151,82z"
   horiz-adv-x="759"
   unicode="Ầ" />
<glyph
   id="glyph34"
   d="M1208,0l-55,136l-324,0l-55,-136l-163,0l304,700l163,0l299,-700M881,263l221,0l-110,272M594,752l-134,0l-64,57l-65,-57l-134,0l111,115l174,0M482,997C482,962 458,929 411,896l-66,26C369,939 381,955 381,970C381,976 379,981 375,984C371,987 366,988 359,988C348,988 338,985 329,978l-40,58C322,1057 356,1067 390,1067C419,1067 441,1060 458,1047C474,1034 482,1017 482,997z"
   horiz-adv-x="759"
   unicode="Ẩ" />
<glyph
   id="glyph36"
   d="M1185,0l-55,136l-324,0l-55,-136l-163,0l304,700l163,0l299,-700M858,263l221,0l-110,272M574,752l-134,0l-64,57l-65,-57l-134,0l111,115l174,0M455,901C439,901 424,903 410,908C396,913 380,919 361,928C359,929 352,932 341,937C329,942 319,944 312,944C301,944 293,941 288,934C283,927 281,917 281,904l-76,0C205,945 212,976 226,999C240,1021 263,1032 295,1032C311,1032 327,1030 342,1025C357,1020 373,1014 391,1005C414,994 430,989 439,989C450,989 457,992 462,999C467,1006 469,1016 469,1029l77,0C546,988 539,956 525,934C510,912 487,901 455,901z"
   horiz-adv-x="759"
   unicode="Ẫ" />
<glyph
   id="glyph38"
   d="M594,0l-55,136l-324,0l-55,-136l-163,0l304,700l163,0l299,-700M267,263l221,0l-110,272M276,919l79,-157l-109,-10l-91,120M460,919l80,-157l-109,-10l-91,120z"
   horiz-adv-x="759"
   unicode="Ȁ" />
<glyph
   id="glyph40"
   d="M594,0l-55,136l-324,0l-55,-136l-163,0l304,700l163,0l299,-700M267,263l221,0l-110,272M357,828C357,807 351,790 338,777C325,763 308,756 287,756C266,756 250,763 237,777C224,790 217,807 217,828C217,849 224,867 237,880C250,893 266,900 287,900C308,900 325,893 338,880C351,867 357,849 357,828M544,828C544,807 537,790 524,777C511,763 494,756 474,756C453,756 436,763 423,777C410,790 403,807 403,828C403,849 410,866 423,880C436,893 453,900 474,900C494,900 511,893 524,880C537,866 544,849 544,828z"
   horiz-adv-x="759"
   unicode="Ä" />
<glyph
   id="glyph42"
   d="M594,0l-55,136l-324,0l-55,-136l-163,0l304,700l163,0l299,-700M267,263l221,0l-110,272M457,-156C457,-181 449,-202 434,-218C418,-234 398,-242 373,-242C349,-242 329,-234 314,-217C298,-201 290,-181 290,-156C290,-131 298,-110 314,-94C329,-78 349,-70 373,-70C398,-70 418,-78 434,-94C449,-110 457,-131 457,-156z"
   horiz-adv-x="759"
   unicode="Ạ" />
<glyph
   id="glyph44"
   d="M594,0l-55,136l-324,0l-55,-136l-163,0l304,700l163,0l299,-700M267,263l221,0l-110,272M345,916l104,-153l-112,-10l-128,110z"
   horiz-adv-x="759"
   unicode="À" />
<glyph
   id="glyph46"
   d="M594,0l-55,136l-324,0l-55,-136l-163,0l304,700l163,0l299,-700M267,263l221,0l-110,272M492,877C492,855 485,832 470,809C455,785 434,763 409,742l-72,31C350,786 361,799 369,813C376,827 380,840 380,851C380,859 377,865 372,870C367,875 360,877 352,877C340,877 328,873 315,864l-42,68C308,955 345,967 384,967C417,967 443,959 463,943C482,927 492,905 492,877z"
   horiz-adv-x="759"
   unicode="Ả" />
<glyph
   id="glyph48"
   d="M594,0l-55,136l-324,0l-55,-136l-163,0l304,700l163,0l299,-700M267,263l221,0l-110,272M224,759C225,806 240,843 269,871C298,899 335,913 380,913C425,913 461,899 490,871C519,843 534,806 536,759l-98,0C437,776 431,791 420,802C409,813 396,819 380,819C364,819 351,813 340,802C329,791 323,776 322,759z"
   horiz-adv-x="759"
   unicode="Ȃ" />
<glyph
   id="glyph50"
   d="M594,0l-55,136l-324,0l-55,-136l-163,0l304,700l163,0l299,-700M267,263l221,0l-110,272M214,856l332,0l0,-94l-332,0z"
   horiz-adv-x="759"
   unicode="Ā" />
<glyph
   id="glyph52"
   d="M706,-119l29,-88C703,-221 672,-228 642,-228C608,-228 581,-219 562,-201C542,-183 532,-158 532,-127C532,-82 553,-39 594,0l-55,136l-324,0l-55,-136l-163,0l304,700l163,0l299,-700l-30,0C705,-20 685,-38 672,-53C659,-69 652,-85 652,-100C652,-118 660,-127 676,-127C687,-127 697,-124 706,-119M267,263l221,0l-110,272z"
   horiz-adv-x="759"
   unicode="Ą" />
<glyph
   id="glyph54"
   d="M594,0l-55,136l-324,0l-55,-136l-163,0l304,700l163,0l299,-700M267,263l221,0l-110,272M496,857C496,825 485,798 462,775C439,752 412,741 380,741C348,741 321,752 298,775C275,798 264,825 264,857C264,888 275,915 298,938C321,961 348,972 380,972C412,972 439,961 462,938C485,915 496,888 496,857M333,857C333,844 338,834 347,825C356,816 367,811 380,811C393,811 405,816 414,825C423,834 427,844 427,857C427,870 423,880 414,889C405,898 393,902 380,902C367,902 356,898 347,889C338,880 333,870 333,857z"
   horiz-adv-x="759"
   unicode="Å" />
<glyph
   id="glyph56"
   d="M594,0l-55,136l-324,0l-55,-136l-163,0l304,700l163,0l299,-700M267,263l221,0l-110,272M496,857C496,825 485,798 462,775C439,752 412,741 380,741C348,741 321,752 298,775C275,798 264,825 264,857C264,888 275,915 298,938C321,961 348,972 380,972C412,972 439,961 462,938C485,915 496,888 496,857M333,857C333,844 338,834 347,825C356,816 367,811 380,811C393,811 405,816 414,825C423,834 427,844 427,857C427,870 423,880 414,889C405,898 393,902 380,902C367,902 356,898 347,889C338,880 333,870 333,857M426,1147l112,-70l-150,-82l-98,27z"
   horiz-adv-x="759"
   unicode="Ǻ" />
<glyph
   id="glyph58"
   d="M594,0l-55,136l-324,0l-55,-136l-163,0l304,700l163,0l299,-700M267,263l221,0l-110,272M463,755C448,755 434,758 421,763C408,768 392,775 374,784C366,789 358,793 350,796C342,799 335,801 330,801C320,801 313,798 309,791C305,784 303,773 302,758l-91,0C211,806 218,843 233,869C247,895 270,908 303,908C318,908 332,906 345,901C358,896 374,888 392,879C413,867 427,861 436,861C446,861 453,865 457,872C461,879 463,890 464,904l91,0C555,857 548,820 534,794C519,768 496,755 463,755z"
   horiz-adv-x="759"
   unicode="Ã" />
<glyph
   id="glyph60"
   d="M652,132l386,0l0,-132l-543,0l0,154l-250,0l-83,-154l-165,0l401,700l629,0l0,-131l-375,0l0,-152l338,0l0,-131l-338,0M310,274l185,0l0,300l-22,0z"
   horiz-adv-x="1085"
   unicode="Æ" />
<glyph
   id="glyph62"
   d="M652,132l386,0l0,-132l-543,0l0,154l-250,0l-83,-154l-165,0l401,700l629,0l0,-131l-375,0l0,-152l338,0l0,-131l-338,0M310,274l185,0l0,300l-22,0M719,916l136,-53l-136,-110l-112,10z"
   horiz-adv-x="1085"
   unicode="Ǽ" />
<glyph
   id="glyph64"
   d="M649,525C649,488 638,455 617,428C595,400 565,381 528,371C573,362 609,342 635,311C661,279 674,240 674,194C674,134 650,87 603,52C556,17 491,0 410,0l-333,0l0,700l322,0C476,700 537,684 582,653C627,622 649,579 649,525M487,496C487,520 479,539 462,552C445,565 421,572 391,571l-156,0l0,-153l156,0C421,418 445,425 462,439C479,452 487,471 487,496M511,214C511,239 500,259 479,274C458,289 428,296 391,295l-156,0l0,-166l156,0C428,129 458,137 479,152C500,167 511,187 511,214z"
   horiz-adv-x="712"
   unicode="B" />
<glyph
   id="glyph66"
   d="M402,573C363,573 327,563 294,544C261,525 236,498 217,465C198,432 189,395 189,354C189,313 198,276 217,243C236,209 261,182 294,163C327,143 363,133 402,133C433,133 465,141 498,156C530,171 559,191 584,216l93,-101C640,76 596,46 546,23C495,0 445,-11 394,-11C325,-11 263,5 207,37C151,68 107,112 75,167C43,222 27,284 27,352C27,419 43,480 76,535C109,590 154,633 211,664C268,695 331,711 400,711C451,711 501,701 550,680C599,659 641,630 676,594l-92,-113C560,510 532,532 500,549C467,565 435,573 402,573z"
   horiz-adv-x="694"
   unicode="C" />
<glyph
   id="glyph68"
   d="M402,573C363,573 327,563 294,544C261,525 236,498 217,465C198,432 189,395 189,354C189,313 198,276 217,243C236,209 261,182 294,163C327,143 363,133 402,133C433,133 465,141 498,156C530,171 559,191 584,216l93,-101C640,76 596,46 546,23C495,0 445,-11 394,-11C325,-11 263,5 207,37C151,68 107,112 75,167C43,222 27,284 27,352C27,419 43,480 76,535C109,590 154,633 211,664C268,695 331,711 400,711C451,711 501,701 550,680C599,659 641,630 676,594l-92,-113C560,510 532,532 500,549C467,565 435,573 402,573M447,916l136,-53l-136,-110l-112,10z"
   horiz-adv-x="694"
   unicode="Ć" />
<glyph
   id="glyph70"
   d="M402,573C363,573 327,563 294,544C261,525 236,498 217,465C198,432 189,395 189,354C189,313 198,276 217,243C236,209 261,182 294,163C327,143 363,133 402,133C433,133 465,141 498,156C530,171 559,191 584,216l93,-101C640,76 596,46 546,23C495,0 445,-11 394,-11C325,-11 263,5 207,37C151,68 107,112 75,167C43,222 27,284 27,352C27,419 43,480 76,535C109,590 154,633 211,664C268,695 331,711 400,711C451,711 501,701 550,680C599,659 641,630 676,594l-92,-113C560,510 532,532 500,549C467,565 435,573 402,573M450,906l121,0l-108,-148l-141,0l-109,148l122,0l58,-65z"
   horiz-adv-x="694"
   unicode="Č" />
<glyph
   id="glyph72"
   d="M430,-9l-17,-45C441,-60 462,-70 475,-84C488,-99 495,-116 495,-135C495,-166 483,-189 460,-205C437,-221 407,-229 372,-229C338,-229 303,-222 267,-208l26,75C311,-140 329,-143 347,-143C359,-143 369,-141 377,-136C384,-132 388,-127 388,-121C388,-113 383,-107 374,-102C365,-98 352,-96 336,-96l-27,0l29,89C278,1 225,22 178,55C131,88 94,131 67,183C40,234 27,291 27,352C27,419 43,480 76,535C109,590 154,633 211,664C268,695 331,711 400,711C451,711 501,701 550,680C599,659 641,630 676,594l-92,-113C560,510 532,532 500,549C467,565 435,573 402,573C363,573 327,563 294,544C261,525 236,498 217,465C198,432 189,395 189,354C189,313 198,276 217,243C236,209 261,182 294,163C327,143 363,133 402,133C433,133 465,141 498,156C530,171 559,191 584,216l93,-101C644,81 606,53 563,32C520,10 475,-4 430,-9z"
   horiz-adv-x="694"
   unicode="Ç" />
<glyph
   id="glyph74"
   d="M532,863l-136,-110l-112,10l112,153M430,-9l-17,-45C441,-60 462,-70 475,-84C488,-99 495,-116 495,-135C495,-166 483,-189 460,-205C437,-221 407,-229 372,-229C338,-229 303,-222 267,-208l26,75C311,-140 329,-143 347,-143C359,-143 369,-141 377,-136C384,-132 388,-127 388,-121C388,-113 383,-107 374,-102C365,-98 352,-96 336,-96l-27,0l29,89C278,1 225,22 178,55C131,88 94,131 67,183C40,234 27,291 27,352C27,419 43,480 76,535C109,590 154,633 211,664C268,695 331,711 400,711C451,711 501,701 550,680C599,659 641,630 676,594l-92,-113C560,510 532,532 500,549C467,565 435,573 402,573C363,573 327,563 294,544C261,525 236,498 217,465C198,432 189,395 189,354C189,313 198,276 217,243C236,209 261,182 294,163C327,143 363,133 402,133C433,133 465,141 498,156C530,171 559,191 584,216l93,-101C644,81 606,53 563,32C520,10 475,-4 430,-9z"
   horiz-adv-x="694"
   unicode="Ḉ" />
<glyph
   id="glyph76"
   d="M402,573C363,573 327,563 294,544C261,525 236,498 217,465C198,432 189,395 189,354C189,313 198,276 217,243C236,209 261,182 294,163C327,143 363,133 402,133C433,133 465,141 498,156C530,171 559,191 584,216l93,-101C640,76 596,46 546,23C495,0 445,-11 394,-11C325,-11 263,5 207,37C151,68 107,112 75,167C43,222 27,284 27,352C27,419 43,480 76,535C109,590 154,633 211,664C268,695 331,711 400,711C451,711 501,701 550,680C599,659 641,630 676,594l-92,-113C560,510 532,532 500,549C467,565 435,573 402,573M591,759l-122,0l-57,65l-58,-65l-121,0l108,148l141,0z"
   horiz-adv-x="694"
   unicode="Ĉ" />
<glyph
   id="glyph78"
   d="M402,573C363,573 327,563 294,544C261,525 236,498 217,465C198,432 189,395 189,354C189,313 198,276 217,243C236,209 261,182 294,163C327,143 363,133 402,133C433,133 465,141 498,156C530,171 559,191 584,216l93,-101C640,76 596,46 546,23C495,0 445,-11 394,-11C325,-11 263,5 207,37C151,68 107,112 75,167C43,222 27,284 27,352C27,419 43,480 76,535C109,590 154,633 211,664C268,695 331,711 400,711C451,711 501,701 550,680C599,659 641,630 676,594l-92,-113C560,510 532,532 500,549C467,565 435,573 402,573M496,842C496,817 488,797 473,781C457,764 437,756 412,756C388,756 368,764 353,781C337,797 329,817 329,842C329,867 337,888 353,905C368,921 388,929 412,929C437,929 457,921 473,905C488,888 496,867 496,842z"
   horiz-adv-x="694"
   unicode="Ċ" />
<glyph
   id="glyph80"
   d="M742,350C742,282 726,222 695,169C663,116 619,74 562,45C505,15 441,0 368,0l-291,0l0,700l297,0C445,700 509,685 565,656C621,626 665,585 696,532C727,479 742,418 742,350M581,349C581,391 572,429 554,462C535,495 510,521 479,540C447,558 411,567 371,567l-136,0l0,-434l143,0C417,133 452,142 483,161C514,179 538,204 555,237C572,270 581,307 581,349z"
   horiz-adv-x="769"
   unicode="D" />
<glyph
   id="glyph82"
   d="M742,350C742,282 726,222 695,169C663,116 619,74 562,45C505,15 441,0 368,0l-291,0l0,700l297,0C445,700 509,685 565,656C621,626 665,585 696,532C727,479 742,418 742,350M581,349C581,391 572,429 554,462C535,495 510,521 479,540C447,558 411,567 371,567l-136,0l0,-434l143,0C417,133 452,142 483,161C514,179 538,204 555,237C572,270 581,307 581,349M813,700l591,0l0,-106l-391,-462l397,0l-1,-132l-609,0l0,107l392,461l-379,0M1146,906l121,0l-108,-148l-141,0l-109,148l122,0l58,-65z"
   horiz-adv-x="1441"
   unicode="Ǆ" />
<glyph
   id="glyph84"
   d="M742,350C742,282 726,222 695,169C663,116 619,74 562,45C505,15 441,0 368,0l-291,0l0,311l-68,0l0,79l68,0l0,310l296,0C445,700 509,685 565,656C621,626 665,585 696,532C727,479 742,418 742,350M581,349C581,391 572,429 554,462C535,495 510,521 478,540C446,558 410,567 370,567l-135,0l0,-177l175,0l0,-79l-175,0l0,-178l142,0C416,133 451,142 482,161C513,179 537,204 555,237C572,270 581,307 581,349z"
   horiz-adv-x="769"
   unicode="Ð" />
<glyph
   id="glyph86"
   d="M742,350C742,282 726,222 695,169C663,116 619,74 562,45C505,15 441,0 368,0l-291,0l0,700l297,0C445,700 509,685 565,656C621,626 665,585 696,532C727,479 742,418 742,350M581,349C581,391 572,429 554,462C535,495 510,521 479,540C447,558 411,567 371,567l-136,0l0,-434l143,0C417,133 452,142 483,161C514,179 538,204 555,237C572,270 581,307 581,349M399,906l121,0l-108,-148l-141,0l-109,148l122,0l58,-65z"
   horiz-adv-x="769"
   unicode="Ď" />
<glyph
   id="glyph88"
   d="M742,350C742,282 726,222 695,169C663,116 619,74 562,45C505,15 441,0 368,0l-291,0l0,311l-68,0l0,79l68,0l0,310l296,0C445,700 509,685 565,656C621,626 665,585 696,532C727,479 742,418 742,350M581,349C581,391 572,429 554,462C535,495 510,521 478,540C446,558 410,567 370,567l-135,0l0,-177l175,0l0,-79l-175,0l0,-178l142,0C416,133 451,142 482,161C513,179 537,204 555,237C572,270 581,307 581,349z"
   horiz-adv-x="769"
   unicode="Đ" />
<glyph
   id="glyph90"
   d="M742,350C742,282 726,222 695,169C663,116 619,74 562,45C505,15 441,0 368,0l-291,0l0,700l297,0C445,700 509,685 565,656C621,626 665,585 696,532C727,479 742,418 742,350M581,349C581,391 572,429 554,462C535,495 510,521 479,540C447,558 411,567 371,567l-136,0l0,-434l143,0C417,133 452,142 483,161C514,179 538,204 555,237C572,270 581,307 581,349M454,-156C454,-181 446,-202 431,-218C415,-234 395,-242 370,-242C346,-242 326,-234 311,-217C295,-201 287,-181 287,-156C287,-131 295,-110 311,-94C326,-78 346,-70 370,-70C395,-70 415,-78 431,-94C446,-110 454,-131 454,-156z"
   horiz-adv-x="769"
   unicode="Ḍ" />
<glyph
   id="glyph92"
   d="M742,350C742,282 726,222 695,169C663,116 619,74 562,45C505,15 441,0 368,0l-291,0l0,700l297,0C445,700 509,685 565,656C621,626 665,585 696,532C727,479 742,418 742,350M581,349C581,391 572,429 554,462C535,495 510,521 479,540C447,558 411,567 371,567l-136,0l0,-434l143,0C417,133 452,142 483,161C514,179 538,204 555,237C572,270 581,307 581,349M219,-78l303,0l0,-94l-303,0z"
   horiz-adv-x="769"
   unicode="Ḏ" />
<glyph
   id="glyph94"
   d="M742,350C742,282 726,222 695,169C663,116 619,74 562,45C505,15 441,0 368,0l-291,0l0,700l297,0C445,700 509,685 565,656C621,626 665,585 696,532C727,479 742,418 742,350M581,349C581,391 572,429 554,462C535,495 510,521 479,540C447,558 411,567 371,567l-136,0l0,-434l143,0C417,133 452,142 483,161C514,179 538,204 555,237C572,270 581,307 581,349M817,537l459,0l0,-97l-277,-319l286,0l0,-122l-478,1l0,97l277,319l-267,1M1104,759l121,0l-108,-148l-141,0l-109,148l122,0l58,-65z"
   horiz-adv-x="1317"
   unicode="ǅ" />
<glyph
   id="glyph96"
   d="M77,700l533,0l0,-131l-375,0l0,-152l337,0l0,-131l-337,0l0,-155l386,0l0,-131l-544,0z"
   horiz-adv-x="668"
   unicode="E" />
<glyph
   id="glyph98"
   d="M77,700l533,0l0,-131l-375,0l0,-152l337,0l0,-131l-337,0l0,-155l386,0l0,-131l-544,0M385,916l136,-53l-136,-110l-112,10z"
   horiz-adv-x="668"
   unicode="É" />
<glyph
   id="glyph100"
   d="M77,700l533,0l0,-131l-375,0l0,-152l337,0l0,-131l-337,0l0,-155l386,0l0,-131l-544,0M350,850C366,850 379,856 390,867C401,878 407,892 408,910l98,0C504,863 489,826 460,798C431,770 395,756 350,756C305,756 268,770 239,798C210,826 195,863 194,910l98,0C293,892 299,878 310,867C321,856 334,850 350,850z"
   horiz-adv-x="668"
   unicode="Ĕ" />
<glyph
   id="glyph102"
   d="M77,700l533,0l0,-131l-375,0l0,-152l337,0l0,-131l-337,0l0,-155l386,0l0,-131l-544,0M388,906l121,0l-108,-148l-141,0l-109,148l122,0l58,-65z"
   horiz-adv-x="668"
   unicode="Ě" />
<glyph
   id="glyph104"
   d="M176,910l98,0C275,892 281,878 292,867C303,856 316,850 332,850C348,850 361,856 372,867C383,878 389,892 390,910l98,0C486,863 471,826 442,798C413,770 377,756 332,756C287,756 250,770 221,798C192,826 177,863 176,910M404,0l-20,-54C412,-60 433,-70 446,-84C459,-99 466,-116 466,-135C466,-166 454,-189 431,-205C408,-221 378,-229 343,-229C309,-229 274,-222 238,-208l26,75C282,-140 300,-143 318,-143C330,-143 340,-141 348,-136C355,-132 359,-127 359,-121C359,-113 354,-107 345,-102C336,-98 323,-96 307,-96l-27,0l31,96l-234,0l0,700l533,0l0,-131l-375,0l0,-152l337,0l0,-131l-337,0l0,-155l386,0l0,-131z"
   horiz-adv-x="668"
   unicode="Ḝ" />
<glyph
   id="glyph106"
   d="M77,700l533,0l0,-131l-375,0l0,-152l337,0l0,-131l-337,0l0,-155l386,0l0,-131l-544,0M529,759l-122,0l-57,65l-58,-65l-121,0l108,148l141,0z"
   horiz-adv-x="668"
   unicode="Ê" />
<glyph
   id="glyph108"
   d="M77,700l533,0l0,-131l-375,0l0,-152l337,0l0,-131l-337,0l0,-155l386,0l0,-131l-544,0M548,752l-134,0l-64,57l-65,-57l-134,0l111,115l174,0M395,1049l112,-70l-150,-82l-98,27z"
   horiz-adv-x="668"
   unicode="Ế" />
<glyph
   id="glyph110"
   d="M77,700l533,0l0,-131l-375,0l0,-152l337,0l0,-131l-337,0l0,-155l386,0l0,-131l-544,0M432,-156C432,-181 424,-202 409,-218C393,-234 373,-242 348,-242C324,-242 304,-234 289,-217C273,-201 265,-181 265,-156C265,-131 273,-110 289,-94C304,-78 324,-70 348,-70C373,-70 393,-78 409,-94C424,-110 432,-131 432,-156M528,759l-122,0l-57,65l-58,-65l-121,0l108,148l141,0z"
   horiz-adv-x="668"
   unicode="Ệ" />
<glyph
   id="glyph112"
   d="M77,700l533,0l0,-131l-375,0l0,-152l337,0l0,-131l-337,0l0,-155l386,0l0,-131l-544,0M548,752l-134,0l-64,57l-65,-57l-134,0l111,115l174,0M292,1049l135,-125l-97,-27l-151,82z"
   horiz-adv-x="668"
   unicode="Ề" />
<glyph
   id="glyph114"
   d="M77,700l533,0l0,-131l-375,0l0,-152l337,0l0,-131l-337,0l0,-155l386,0l0,-131l-544,0M564,752l-134,0l-64,57l-65,-57l-134,0l111,115l174,0M452,997C452,962 428,929 381,896l-66,26C339,939 351,955 351,970C351,976 349,981 345,984C341,987 336,988 329,988C318,988 308,985 299,978l-40,58C292,1057 326,1067 360,1067C389,1067 411,1060 428,1047C444,1034 452,1017 452,997z"
   horiz-adv-x="668"
   unicode="Ể" />
<glyph
   id="glyph116"
   d="M77,700l533,0l0,-131l-375,0l0,-152l337,0l0,-131l-337,0l0,-155l386,0l0,-131l-544,0M544,752l-134,0l-64,57l-65,-57l-134,0l111,115l174,0M425,901C409,901 394,903 380,908C366,913 350,919 331,928C329,929 322,932 311,937C299,942 289,944 282,944C271,944 263,941 258,934C253,927 251,917 251,904l-76,0C175,945 182,976 196,999C210,1021 233,1032 265,1032C281,1032 297,1030 312,1025C327,1020 343,1014 361,1005C384,994 400,989 409,989C420,989 427,992 432,999C437,1006 439,1016 439,1029l77,0C516,988 509,956 495,934C480,912 457,901 425,901z"
   horiz-adv-x="668"
   unicode="Ễ" />
<glyph
   id="glyph118"
   d="M77,700l533,0l0,-131l-375,0l0,-152l337,0l0,-131l-337,0l0,-155l386,0l0,-131l-544,0M246,919l79,-157l-109,-10l-91,120M430,919l80,-157l-109,-10l-91,120z"
   horiz-adv-x="668"
   unicode="Ȅ" />
<glyph
   id="glyph120"
   d="M77,700l533,0l0,-131l-375,0l0,-152l337,0l0,-131l-337,0l0,-155l386,0l0,-131l-544,0M327,828C327,807 321,790 308,777C295,763 278,756 257,756C236,756 220,763 207,777C194,790 187,807 187,828C187,849 194,867 207,880C220,893 236,900 257,900C278,900 295,893 308,880C321,867 327,849 327,828M514,828C514,807 507,790 494,777C481,763 464,756 444,756C423,756 406,763 393,777C380,790 373,807 373,828C373,849 380,866 393,880C406,893 423,900 444,900C464,900 481,893 494,880C507,866 514,849 514,828z"
   horiz-adv-x="668"
   unicode="Ë" />
<glyph
   id="glyph122"
   d="M77,700l533,0l0,-131l-375,0l0,-152l337,0l0,-131l-337,0l0,-155l386,0l0,-131l-544,0M434,842C434,817 426,797 411,781C395,764 375,756 350,756C326,756 306,764 291,781C275,797 267,817 267,842C267,867 275,888 291,905C306,921 326,929 350,929C375,929 395,921 411,905C426,888 434,867 434,842z"
   horiz-adv-x="668"
   unicode="Ė" />
<glyph
   id="glyph124"
   d="M77,700l533,0l0,-131l-375,0l0,-152l337,0l0,-131l-337,0l0,-155l386,0l0,-131l-544,0M432,-156C432,-181 424,-202 409,-218C393,-234 373,-242 348,-242C324,-242 304,-234 289,-217C273,-201 265,-181 265,-156C265,-131 273,-110 289,-94C304,-78 324,-70 348,-70C373,-70 393,-78 409,-94C424,-110 432,-131 432,-156z"
   horiz-adv-x="668"
   unicode="Ẹ" />
<glyph
   id="glyph126"
   d="M77,700l533,0l0,-131l-375,0l0,-152l337,0l0,-131l-337,0l0,-155l386,0l0,-131l-544,0M315,916l104,-153l-112,-10l-128,110z"
   horiz-adv-x="668"
   unicode="È" />
<glyph
   id="glyph128"
   d="M77,700l533,0l0,-131l-375,0l0,-152l337,0l0,-131l-337,0l0,-155l386,0l0,-131l-544,0M462,877C462,855 455,832 440,809C425,785 404,763 379,742l-72,31C320,786 331,799 339,813C346,827 350,840 350,851C350,859 347,865 342,870C337,875 330,877 322,877C310,877 298,873 285,864l-42,68C278,955 315,967 354,967C387,967 413,959 433,943C452,927 462,905 462,877z"
   horiz-adv-x="668"
   unicode="Ẻ" />
<glyph
   id="glyph130"
   d="M77,700l533,0l0,-131l-375,0l0,-152l337,0l0,-131l-337,0l0,-155l386,0l0,-131l-544,0M194,759C195,806 210,843 239,871C268,899 305,913 350,913C395,913 431,899 460,871C489,843 504,806 506,759l-98,0C407,776 401,791 390,802C379,813 366,819 350,819C334,819 321,813 310,802C299,791 293,776 292,759z"
   horiz-adv-x="668"
   unicode="Ȇ" />
<glyph
   id="glyph132"
   d="M77,700l533,0l0,-131l-375,0l0,-152l337,0l0,-131l-337,0l0,-155l386,0l0,-131l-544,0M184,856l332,0l0,-94l-332,0z"
   horiz-adv-x="668"
   unicode="Ē" />
<glyph
   id="glyph134"
   d="M620,700l533,0l0,-131l-375,0l0,-152l337,0l0,-131l-337,0l0,-155l386,0l0,-131l-544,0M201,851l278,0l0,-90l-278,0M386,1045l112,-70l-150,-82l-98,27z"
   horiz-adv-x="668"
   unicode="Ḗ" />
<glyph
   id="glyph136"
   d="M643,700l533,0l0,-131l-375,0l0,-152l337,0l0,-131l-337,0l0,-155l386,0l0,-131l-544,0M225,851l278,0l0,-90l-278,0M307,1045l135,-125l-97,-27l-151,82z"
   horiz-adv-x="668"
   unicode="Ḕ" />
<glyph
   id="glyph138"
   d="M623,-207C591,-221 560,-228 530,-228C496,-228 469,-219 450,-201C430,-183 420,-158 420,-127C420,-82 441,-39 482,0l-405,0l0,700l533,0l0,-131l-375,0l0,-152l337,0l0,-131l-337,0l0,-155l386,0l0,-131C593,-20 573,-38 560,-53C547,-69 540,-85 540,-100C540,-118 548,-127 564,-127C575,-127 585,-124 594,-119z"
   horiz-adv-x="668"
   unicode="Ę" />
<glyph
   id="glyph140"
   d="M77,700l533,0l0,-131l-375,0l0,-152l337,0l0,-131l-337,0l0,-155l386,0l0,-131l-544,0M433,755C418,755 404,758 391,763C378,768 362,775 344,784C336,789 328,793 320,796C312,799 305,801 300,801C290,801 283,798 279,791C275,784 273,773 272,758l-91,0C181,806 188,843 203,869C217,895 240,908 273,908C288,908 302,906 315,901C328,896 344,888 362,879C383,867 397,861 406,861C416,861 423,865 427,872C431,879 433,890 434,904l91,0C525,857 518,820 504,794C489,768 466,755 433,755z"
   horiz-adv-x="668"
   unicode="Ẽ" />
<glyph
   id="glyph142"
   d="M77,700l503,0l-1,-131l-344,0l0,-172l316,0l0,-132l-316,0l0,-265l-158,0z"
   horiz-adv-x="595"
   unicode="F" />
<glyph
   id="glyph144"
   d="M547,353l137,0l0,-272C647,54 602,32 550,15C498,-2 448,-11 400,-11C330,-11 267,5 210,37C153,68 109,112 76,167C43,222 27,283 27,351C27,418 44,480 77,535C110,590 156,633 215,664C273,695 338,711 409,711C461,711 512,702 562,683C611,664 654,639 690,607l-89,-113C575,519 545,538 511,552C477,566 443,573 409,573C368,573 331,563 298,544C264,524 237,497 218,464C199,430 189,392 189,351C189,310 199,272 219,238C238,203 265,176 299,157C332,137 369,127 410,127C431,127 453,131 477,138C501,145 524,154 547,166z"
   horiz-adv-x="745"
   unicode="G" />
<glyph
   id="glyph146"
   d="M547,353l137,0l0,-272C647,54 602,32 550,15C498,-2 448,-11 400,-11C330,-11 267,5 210,37C153,68 109,112 76,167C43,222 27,283 27,351C27,418 44,480 77,535C110,590 156,633 215,664C273,695 338,711 409,711C461,711 512,702 562,683C611,664 654,639 690,607l-89,-113C575,519 545,538 511,552C477,566 443,573 409,573C368,573 331,563 298,544C264,524 237,497 218,464C199,430 189,392 189,351C189,310 199,272 219,238C238,203 265,176 299,157C332,137 369,127 410,127C431,127 453,131 477,138C501,145 524,154 547,166M395,850C411,850 424,856 435,867C446,878 452,892 453,910l98,0C549,863 534,826 505,798C476,770 440,756 395,756C350,756 313,770 284,798C255,826 240,863 239,910l98,0C338,892 344,878 355,867C366,856 379,850 395,850z"
   horiz-adv-x="745"
   unicode="Ğ" />
<glyph
   id="glyph148"
   d="M547,353l137,0l0,-272C647,54 602,32 550,15C498,-2 448,-11 400,-11C330,-11 267,5 210,37C153,68 109,112 76,167C43,222 27,283 27,351C27,418 44,480 77,535C110,590 156,633 215,664C273,695 338,711 409,711C461,711 512,702 562,683C611,664 654,639 690,607l-89,-113C575,519 545,538 511,552C477,566 443,573 409,573C368,573 331,563 298,544C264,524 237,497 218,464C199,430 189,392 189,351C189,310 199,272 219,238C238,203 265,176 299,157C332,137 369,127 410,127C431,127 453,131 477,138C501,145 524,154 547,166M433,906l121,0l-108,-148l-141,0l-109,148l122,0l58,-65z"
   horiz-adv-x="745"
   unicode="Ǧ" />
<glyph
   id="glyph150"
   d="M547,353l137,0l0,-272C647,54 602,32 550,15C498,-2 448,-11 400,-11C330,-11 267,5 210,37C153,68 109,112 76,167C43,222 27,283 27,351C27,418 44,480 77,535C110,590 156,633 215,664C273,695 338,711 409,711C461,711 512,702 562,683C611,664 654,639 690,607l-89,-113C575,519 545,538 511,552C477,566 443,573 409,573C368,573 331,563 298,544C264,524 237,497 218,464C199,430 189,392 189,351C189,310 199,272 219,238C238,203 265,176 299,157C332,137 369,127 410,127C431,127 453,131 477,138C501,145 524,154 547,166M574,759l-122,0l-57,65l-58,-65l-121,0l108,148l141,0z"
   horiz-adv-x="745"
   unicode="Ĝ" />
<glyph
   id="glyph152"
   d="M547,353l137,0l0,-272C647,54 602,32 550,15C498,-2 448,-11 400,-11C330,-11 267,5 210,37C153,68 109,112 76,167C43,222 27,283 27,351C27,418 44,480 77,535C110,590 156,633 215,664C273,695 338,711 409,711C461,711 512,702 562,683C611,664 654,639 690,607l-89,-113C575,519 545,538 511,552C477,566 443,573 409,573C368,573 331,563 298,544C264,524 237,497 218,464C199,430 189,392 189,351C189,310 199,272 219,238C238,203 265,176 299,157C332,137 369,127 410,127C431,127 453,131 477,138C501,145 524,154 547,166M325,-59l130,0l-68,-170l-95,0z"
   horiz-adv-x="745"
   unicode="Ģ" />
<glyph
   id="glyph154"
   d="M547,353l137,0l0,-272C647,54 602,32 550,15C498,-2 448,-11 400,-11C330,-11 267,5 210,37C153,68 109,112 76,167C43,222 27,283 27,351C27,418 44,480 77,535C110,590 156,633 215,664C273,695 338,711 409,711C461,711 512,702 562,683C611,664 654,639 690,607l-89,-113C575,519 545,538 511,552C477,566 443,573 409,573C368,573 331,563 298,544C264,524 237,497 218,464C199,430 189,392 189,351C189,310 199,272 219,238C238,203 265,176 299,157C332,137 369,127 410,127C431,127 453,131 477,138C501,145 524,154 547,166M479,842C479,817 471,797 456,781C440,764 420,756 395,756C371,756 351,764 336,781C320,797 312,817 312,842C312,867 320,888 336,905C351,921 371,929 395,929C420,929 440,921 456,905C471,888 479,867 479,842z"
   horiz-adv-x="745"
   unicode="Ġ" />
<glyph
   id="glyph156"
   d="M547,353l137,0l0,-272C647,54 602,32 550,15C498,-2 448,-11 400,-11C330,-11 267,5 210,37C153,68 109,112 76,167C43,222 27,283 27,351C27,418 44,480 77,535C110,590 156,633 215,664C273,695 338,711 409,711C461,711 512,702 562,683C611,664 654,639 690,607l-89,-113C575,519 545,538 511,552C477,566 443,573 409,573C368,573 331,563 298,544C264,524 237,497 218,464C199,430 189,392 189,351C189,310 199,272 219,238C238,203 265,176 299,157C332,137 369,127 410,127C431,127 453,131 477,138C501,145 524,154 547,166M229,856l332,0l0,-94l-332,0z"
   horiz-adv-x="745"
   unicode="Ḡ" />
<glyph
   id="glyph158"
   d="M77,700l158,0l0,-292l317,0l0,292l158,0l0,-700l-158,0l0,276l-317,0l0,-276l-158,0z"
   horiz-adv-x="787"
   unicode="H" />
<glyph
   id="glyph160"
   d="M819,599l0,-80l-91,0l0,-519l-159,0l0,277l-316,0l0,-277l-159,0l0,519l-91,0l0,80l91,0l0,101l159,0l0,-101l316,0l0,101l159,0l0,-101M569,408l0,111l-316,0l0,-111z"
   horiz-adv-x="823"
   unicode="Ħ" />
<glyph
   id="glyph162"
   d="M77,700l158,0l0,-292l317,0l0,292l158,0l0,-700l-158,0l0,276l-317,0l0,-276l-158,0M394,-116C410,-116 423,-110 434,-99C445,-88 451,-74 452,-56l98,0C548,-103 533,-140 504,-168C475,-196 439,-210 394,-210C349,-210 312,-196 283,-168C254,-140 239,-103 238,-56l98,0C337,-74 343,-88 354,-99C365,-110 378,-116 394,-116z"
   horiz-adv-x="787"
   unicode="Ḫ" />
<glyph
   id="glyph164"
   d="M77,700l158,0l0,-292l317,0l0,292l158,0l0,-700l-158,0l0,276l-317,0l0,-276l-158,0M580,759l-122,0l-57,65l-58,-65l-121,0l108,148l141,0z"
   horiz-adv-x="787"
   unicode="Ĥ" />
<glyph
   id="glyph166"
   d="M77,700l158,0l0,-292l317,0l0,292l158,0l0,-700l-158,0l0,276l-317,0l0,-276l-158,0M477,-156C477,-181 469,-202 454,-218C438,-234 418,-242 393,-242C369,-242 349,-234 334,-217C318,-201 310,-181 310,-156C310,-131 318,-110 334,-94C349,-78 369,-70 393,-70C418,-70 438,-78 454,-94C469,-110 477,-131 477,-156z"
   horiz-adv-x="787"
   unicode="Ḥ" />
<glyph
   id="glyph168"
   d="M77,700l158,0l0,-700l-158,0z"
   horiz-adv-x="313"
   unicode="I" />
<glyph
   id="glyph170"
   d="M77,700l158,0l0,-700l-158,0M538,-7C447,-7 371,29 309,102l73,112C406,189 431,169 458,156C484,143 508,136 530,136C557,136 577,144 592,160C607,176 614,199 614,228l0,338l-241,0l0,134l400,0l0,-476C773,151 752,95 711,54C669,13 611,-7 538,-7z"
   horiz-adv-x="849"
   unicode="Ĳ" />
<glyph
   id="glyph172"
   d="M77,700l158,0l0,-700l-158,0M191,916l136,-53l-136,-110l-112,10z"
   horiz-adv-x="313"
   unicode="Í" />
<glyph
   id="glyph174"
   d="M77,700l158,0l0,-700l-158,0M156,850C172,850 185,856 196,867C207,878 213,892 214,910l98,0C310,863 295,826 266,798C237,770 201,756 156,756C111,756 74,770 45,798C16,826 1,863 0,910l98,0C99,892 105,878 116,867C127,856 140,850 156,850z"
   horiz-adv-x="313"
   unicode="Ĭ" />
<glyph
   id="glyph176"
   d="M77,700l158,0l0,-700l-158,0M335,759l-122,0l-57,65l-58,-65l-121,0l108,148l141,0z"
   horiz-adv-x="313"
   unicode="Î" />
<glyph
   id="glyph178"
   d="M77,700l158,0l0,-700l-158,0M52,919l79,-157l-109,-10l-91,120M236,919l80,-157l-109,-10l-91,120z"
   horiz-adv-x="313"
   unicode="Ȉ" />
<glyph
   id="glyph180"
   d="M77,700l158,0l0,-700l-158,0M133,828C133,807 127,790 114,777C101,763 84,756 63,756C42,756 26,763 13,777C0,790 -7,807 -7,828C-7,849 0,867 13,880C26,893 42,900 63,900C84,900 101,893 114,880C127,867 133,849 133,828M320,828C320,807 313,790 300,777C287,763 270,756 250,756C229,756 212,763 199,777C186,790 179,807 179,828C179,849 186,866 199,880C212,893 229,900 250,900C270,900 287,893 300,880C313,866 320,849 320,828z"
   horiz-adv-x="313"
   unicode="Ï" />
<glyph
   id="glyph182"
   d="M438,700l158,0l0,-700l-158,0M132,827C132,807 126,790 113,777C100,763 83,756 63,756C43,756 27,763 14,777C1,790 -6,807 -6,827C-6,848 1,865 14,878C27,891 43,898 63,898C83,898 100,891 113,878C126,865 132,848 132,827M317,827C317,807 311,790 298,777C285,763 268,756 249,756C229,756 212,763 199,777C186,790 179,807 179,827C179,848 186,865 199,878C212,891 228,898 249,898C268,898 285,891 298,878C311,865 317,848 317,827M201,1068l112,-70l-150,-82l-98,27z"
   horiz-adv-x="313"
   unicode="Ḯ" />
<glyph
   id="glyph184"
   d="M77,700l158,0l0,-700l-158,0M240,842C240,817 232,797 217,781C201,764 181,756 156,756C132,756 112,764 97,781C81,797 73,817 73,842C73,867 81,888 97,905C112,921 132,929 156,929C181,929 201,921 217,905C232,888 240,867 240,842z"
   horiz-adv-x="313"
   unicode="İ" />
<glyph
   id="glyph186"
   d="M77,700l158,0l0,-700l-158,0M239,-156C239,-181 231,-202 216,-218C200,-234 180,-242 155,-242C131,-242 111,-234 96,-217C80,-201 72,-181 72,-156C72,-131 80,-110 96,-94C111,-78 131,-70 155,-70C180,-70 200,-78 216,-94C231,-110 239,-131 239,-156z"
   horiz-adv-x="313"
   unicode="Ị" />
<glyph
   id="glyph188"
   d="M77,700l158,0l0,-700l-158,0M121,916l104,-153l-112,-10l-128,110z"
   horiz-adv-x="313"
   unicode="Ì" />
<glyph
   id="glyph190"
   d="M77,700l158,0l0,-700l-158,0M268,877C268,855 261,832 246,809C231,785 210,763 185,742l-72,31C126,786 137,799 145,813C152,827 156,840 156,851C156,859 153,865 148,870C143,875 136,877 128,877C116,877 104,873 91,864l-42,68C84,955 121,967 160,967C193,967 219,959 239,943C258,927 268,905 268,877z"
   horiz-adv-x="313"
   unicode="Ỉ" />
<glyph
   id="glyph192"
   d="M77,700l158,0l0,-700l-158,0M0,759C1,806 16,843 45,871C74,899 111,913 156,913C201,913 237,899 266,871C295,843 310,806 312,759l-98,0C213,776 207,791 196,802C185,813 172,819 156,819C140,819 127,813 116,802C105,791 99,776 98,759z"
   horiz-adv-x="313"
   unicode="Ȋ" />
<glyph
   id="glyph194"
   d="M77,700l158,0l0,-700l-158,0M4,856l303,0l0,-94l-303,0z"
   horiz-adv-x="313"
   unicode="Ī" />
<glyph
   id="glyph196"
   d="M130,-100C130,-118 138,-127 154,-127C165,-127 175,-124 184,-119l29,-88C181,-221 150,-228 120,-228C86,-228 59,-219 40,-201C20,-183 10,-158 10,-127C10,-80 32,-36 77,5l0,695l158,0l0,-700l-24,0C183,-20 163,-38 150,-53C137,-69 130,-85 130,-100z"
   horiz-adv-x="313"
   unicode="Į" />
<glyph
   id="glyph198"
   d="M77,700l158,0l0,-700l-158,0M239,755C224,755 210,758 197,763C184,768 168,775 150,784C142,789 134,793 126,796C118,799 111,801 106,801C96,801 89,798 85,791C81,784 79,773 78,758l-91,0C-13,806 -6,843 9,869C23,895 46,908 79,908C94,908 108,906 121,901C134,896 150,888 168,879C189,867 203,861 212,861C222,861 229,865 233,872C237,879 239,890 240,904l91,0C331,857 324,820 310,794C295,768 272,755 239,755z"
   horiz-adv-x="313"
   unicode="Ĩ" />
<glyph
   id="glyph200"
   d="M225,-7C134,-7 58,29 -4,102l73,112C93,189 118,169 145,156C171,143 195,136 217,136C244,136 264,144 279,160C294,176 301,199 301,228l0,338l-241,0l0,134l400,0l0,-476C460,151 439,95 398,54C356,13 298,-7 225,-7z"
   horiz-adv-x="524"
   unicode="J" />
<glyph
   id="glyph202"
   d="M225,-7C134,-7 58,29 -4,102l73,112C93,189 118,169 145,156C171,143 195,136 217,136C244,136 264,144 279,160C294,176 301,199 301,228l0,338l-241,0l0,134l400,0l0,-476C460,151 439,95 398,54C356,13 298,-7 225,-7M436,759l-122,0l-57,65l-58,-65l-121,0l108,148l141,0z"
   horiz-adv-x="524"
   unicode="Ĵ" />
<glyph
   id="glyph204"
   d="M726,0l-189,0l-202,287l-100,-111l0,-176l-158,0l0,700l158,0l0,-326l290,326l184,0l-264,-291z"
   horiz-adv-x="737"
   unicode="K" />
<glyph
   id="glyph206"
   d="M726,0l-189,0l-202,287l-100,-111l0,-176l-158,0l0,700l158,0l0,-326l290,326l184,0l-264,-291M295,-59l130,0l-68,-170l-95,0z"
   horiz-adv-x="737"
   unicode="Ķ" />
<glyph
   id="glyph208"
   d="M77,700l158,0l0,-562l300,0l0,-138l-458,0z"
   horiz-adv-x="552"
   unicode="L" />
<glyph
   id="glyph210"
   d="M77,700l158,0l0,-562l300,0l0,-138l-458,0M777,-7C686,-7 610,29 548,102l73,112C645,189 670,169 697,156C723,143 747,136 769,136C796,136 816,144 831,160C846,176 853,199 853,228l0,338l-241,0l0,134l400,0l0,-476C1012,151 991,95 950,54C908,13 850,-7 777,-7z"
   horiz-adv-x="1075"
   unicode="Ǉ" />
<glyph
   id="glyph212"
   d="M77,700l158,0l0,-562l300,0l0,-138l-458,0M190,916l136,-53l-136,-110l-112,10z"
   horiz-adv-x="552"
   unicode="Ĺ" />
<glyph
   id="glyph214"
   d="M77,700l158,0l0,-562l300,0l0,-138l-458,0M409,700l125,0l-30,-212l-95,0z"
   horiz-adv-x="552"
   unicode="Ľ" />
<glyph
   id="glyph216"
   d="M77,700l158,0l0,-562l300,0l0,-138l-458,0M241,-59l130,0l-68,-170l-95,0z"
   horiz-adv-x="552"
   unicode="Ļ" />
<glyph
   id="glyph218"
   d="M390,773l158,0l0,-562l300,0l0,-138l-458,0M511,416C511,391 503,370 488,354C472,338 452,330 427,330C403,330 383,338 368,355C352,371 344,391 344,416C344,441 352,462 368,478C383,494 403,502 427,502C452,502 472,494 488,478C503,462 511,441 511,416z"
   horiz-adv-x="552"
   unicode="Ŀ" />
<glyph
   id="glyph220"
   d="M77,700l158,0l0,-562l300,0l0,-138l-458,0M389,-156C389,-181 381,-202 366,-218C350,-234 330,-242 305,-242C281,-242 261,-234 246,-217C230,-201 222,-181 222,-156C222,-131 230,-110 246,-94C261,-78 281,-70 305,-70C330,-70 350,-78 366,-94C381,-110 389,-131 389,-156z"
   horiz-adv-x="552"
   unicode="Ḷ" />
<glyph
   id="glyph222"
   d="M77,700l158,0l0,-562l300,0l0,-138l-458,0M565,-75C586,-76 601,-69 612,-56C623,-43 628,-23 628,2l0,536l153,0l0,-560C781,-77 765,-121 733,-152C701,-184 657,-200 601,-200C560,-200 523,-193 490,-179l32,112C537,-72 552,-74 565,-75M786,691C786,666 778,645 763,629C747,613 727,605 702,605C678,605 658,613 643,630C627,646 619,666 619,691C619,716 627,737 643,753C658,769 678,777 702,777C727,777 747,769 763,753C778,737 786,716 786,691z"
   horiz-adv-x="850"
   unicode="ǈ" />
<glyph
   id="glyph224"
   d="M77,700l158,0l0,-562l300,0l0,-138l-458,0M154,-78l303,0l0,-94l-303,0z"
   horiz-adv-x="552"
   unicode="Ḻ" />
<glyph
   id="glyph226"
   d="M275,138l300,0l0,-138l-458,0l0,310l-97,-51l0,88l97,51l0,302l158,0l0,-219l113,59l0,-88l-113,-59z"
   horiz-adv-x="592"
   unicode="Ł" />
<glyph
   id="glyph228"
   d="M77,700l176,0l218,-430l216,430l175,0l0,-700l-142,0l0,473l-199,-402l-102,0l-200,402l0,-473l-142,0z"
   horiz-adv-x="940"
   unicode="M" />
<glyph
   id="glyph230"
   d="M77,700l176,0l218,-430l216,430l175,0l0,-700l-142,0l0,473l-199,-402l-102,0l-200,402l0,-473l-142,0M553,-156C553,-181 545,-202 530,-218C514,-234 494,-242 469,-242C445,-242 425,-234 410,-217C394,-201 386,-181 386,-156C386,-131 394,-110 410,-94C425,-78 445,-70 469,-70C494,-70 514,-78 530,-94C545,-110 553,-131 553,-156z"
   horiz-adv-x="940"
   unicode="Ṃ" />
<glyph
   id="glyph232"
   d="M561,700l150,0l0,-700l-144,0l-339,450l0,-450l-151,0l0,700l144,0l340,-452z"
   horiz-adv-x="788"
   unicode="N" />
<glyph
   id="glyph234"
   d="M561,700l150,0l0,-700l-144,0l-339,450l0,-450l-151,0l0,700l144,0l340,-452M1013,-7C922,-7 846,29 784,102l73,112C881,189 906,169 933,156C959,143 983,136 1005,136C1032,136 1052,144 1067,160C1082,176 1089,199 1089,228l0,338l-241,0l0,134l400,0l0,-476C1248,151 1227,95 1186,54C1144,13 1086,-7 1013,-7z"
   horiz-adv-x="1312"
   unicode="Ǌ" />
<glyph
   id="glyph236"
   d="M561,700l150,0l0,-700l-144,0l-339,450l0,-450l-151,0l0,700l144,0l340,-452M436,916l136,-53l-136,-110l-112,10z"
   horiz-adv-x="788"
   unicode="Ń" />
<glyph
   id="glyph238"
   d="M561,700l150,0l0,-700l-144,0l-339,450l0,-450l-151,0l0,700l144,0l340,-452M439,906l121,0l-108,-148l-141,0l-109,148l122,0l58,-65z"
   horiz-adv-x="788"
   unicode="Ň" />
<glyph
   id="glyph240"
   d="M561,700l150,0l0,-700l-144,0l-339,450l0,-450l-151,0l0,700l144,0l340,-452M332,-59l130,0l-68,-170l-95,0z"
   horiz-adv-x="788"
   unicode="Ņ" />
<glyph
   id="glyph242"
   d="M561,700l150,0l0,-700l-144,0l-339,450l0,-450l-151,0l0,700l144,0l340,-452M485,842C485,817 477,797 462,781C446,764 426,756 401,756C377,756 357,764 342,781C326,797 318,817 318,842C318,867 326,888 342,905C357,921 377,929 401,929C426,929 446,921 462,905C477,888 485,867 485,842z"
   horiz-adv-x="788"
   unicode="Ṅ" />
<glyph
   id="glyph244"
   d="M561,700l150,0l0,-700l-144,0l-339,450l0,-450l-151,0l0,700l144,0l340,-452M480,-156C480,-181 472,-202 457,-218C441,-234 421,-242 396,-242C372,-242 352,-234 337,-217C321,-201 313,-181 313,-156C313,-131 321,-110 337,-94C352,-78 372,-70 396,-70C421,-70 441,-78 457,-94C472,-110 480,-131 480,-156z"
   horiz-adv-x="788"
   unicode="Ṇ" />
<glyph
   id="glyph246"
   d="M711,0l-1,0C709,-65 687,-117 645,-155C602,-193 546,-212 476,-212C403,-212 341,-191 290,-148l62,122C373,-40 394,-51 415,-58C436,-65 456,-69 475,-69C499,-69 519,-62 534,-49C549,-36 557,-16 560,9l-332,440l0,-449l-151,0l0,700l144,0l340,-450l0,450l150,0z"
   horiz-adv-x="788"
   unicode="Ŋ" />
<glyph
   id="glyph248"
   d="M561,700l150,0l0,-700l-144,0l-339,450l0,-450l-151,0l0,700l144,0l340,-452M801,-75C822,-76 837,-69 848,-56C859,-43 864,-23 864,2l0,536l153,0l0,-560C1017,-77 1001,-121 969,-152C937,-184 893,-200 837,-200C796,-200 759,-193 726,-179l32,112C773,-72 788,-74 801,-75M1022,691C1022,666 1014,645 999,629C983,613 963,605 938,605C914,605 894,613 879,630C863,646 855,666 855,691C855,716 863,737 879,753C894,769 914,777 938,777C963,777 983,769 999,753C1014,737 1022,716 1022,691z"
   horiz-adv-x="1086"
   unicode="ǋ" />
<glyph
   id="glyph250"
   d="M561,700l150,0l0,-700l-144,0l-339,450l0,-450l-151,0l0,700l144,0l340,-452M245,-78l303,0l0,-94l-303,0z"
   horiz-adv-x="788"
   unicode="Ṉ" />
<glyph
   id="glyph252"
   d="M561,700l150,0l0,-700l-144,0l-339,450l0,-450l-151,0l0,700l144,0l340,-452M484,755C469,755 455,758 442,763C429,768 413,775 395,784C387,789 379,793 371,796C363,799 356,801 351,801C341,801 334,798 330,791C326,784 324,773 323,758l-91,0C232,806 239,843 254,869C268,895 291,908 324,908C339,908 353,906 366,901C379,896 395,888 413,879C434,867 448,861 457,861C467,861 474,865 478,872C482,879 484,890 485,904l91,0C576,857 569,820 555,794C540,768 517,755 484,755z"
   horiz-adv-x="788"
   unicode="Ñ" />
<glyph
   id="glyph254"
   d="M779,351C779,284 763,222 730,167C697,112 651,68 594,37C537,5 473,-11 403,-11C333,-11 269,5 212,37C155,68 110,112 77,167C44,222 27,283 27,351C27,418 44,480 77,535C110,590 155,633 212,664C269,695 332,711 403,711C473,711 537,695 594,664C651,633 697,590 730,535C763,480 779,418 779,351M189,351C189,310 199,272 219,238C238,204 265,177 298,157C331,137 366,127 405,127C444,127 479,137 512,157C544,176 570,203 589,238C608,272 617,310 617,351C617,392 608,429 589,463C570,497 544,524 512,544C479,563 444,573 405,573C366,573 330,563 297,544C264,524 237,497 218,463C199,429 189,392 189,351z"
   horiz-adv-x="806"
   unicode="O" />
<glyph
   id="glyph256"
   d="M779,351C779,284 763,222 730,167C697,112 651,68 594,37C537,5 473,-11 403,-11C333,-11 269,5 212,37C155,68 110,112 77,167C44,222 27,283 27,351C27,418 44,480 77,535C110,590 155,633 212,664C269,695 332,711 403,711C473,711 537,695 594,664C651,633 697,590 730,535C763,480 779,418 779,351M189,351C189,310 199,272 219,238C238,204 265,177 298,157C331,137 366,127 405,127C444,127 479,137 512,157C544,176 570,203 589,238C608,272 617,310 617,351C617,392 608,429 589,463C570,497 544,524 512,544C479,563 444,573 405,573C366,573 330,563 297,544C264,524 237,497 218,463C199,429 189,392 189,351M438,916l136,-53l-136,-110l-112,10z"
   horiz-adv-x="806"
   unicode="Ó" />
<glyph
   id="glyph258"
   d="M779,351C779,284 763,222 730,167C697,112 651,68 594,37C537,5 473,-11 403,-11C333,-11 269,5 212,37C155,68 110,112 77,167C44,222 27,283 27,351C27,418 44,480 77,535C110,590 155,633 212,664C269,695 332,711 403,711C473,711 537,695 594,664C651,633 697,590 730,535C763,480 779,418 779,351M189,351C189,310 199,272 219,238C238,204 265,177 298,157C331,137 366,127 405,127C444,127 479,137 512,157C544,176 570,203 589,238C608,272 617,310 617,351C617,392 608,429 589,463C570,497 544,524 512,544C479,563 444,573 405,573C366,573 330,563 297,544C264,524 237,497 218,463C199,429 189,392 189,351M403,850C419,850 432,856 443,867C454,878 460,892 461,910l98,0C557,863 542,826 513,798C484,770 448,756 403,756C358,756 321,770 292,798C263,826 248,863 247,910l98,0C346,892 352,878 363,867C374,856 387,850 403,850z"
   horiz-adv-x="806"
   unicode="Ŏ" />
<glyph
   id="glyph260"
   d="M779,351C779,284 763,222 730,167C697,112 651,68 594,37C537,5 473,-11 403,-11C333,-11 269,5 212,37C155,68 110,112 77,167C44,222 27,283 27,351C27,418 44,480 77,535C110,590 155,633 212,664C269,695 332,711 403,711C473,711 537,695 594,664C651,633 697,590 730,535C763,480 779,418 779,351M189,351C189,310 199,272 219,238C238,204 265,177 298,157C331,137 366,127 405,127C444,127 479,137 512,157C544,176 570,203 589,238C608,272 617,310 617,351C617,392 608,429 589,463C570,497 544,524 512,544C479,563 444,573 405,573C366,573 330,563 297,544C264,524 237,497 218,463C199,429 189,392 189,351M582,759l-122,0l-57,65l-58,-65l-121,0l108,148l141,0z"
   horiz-adv-x="806"
   unicode="Ô" />
<glyph
   id="glyph262"
   d="M779,351C779,284 763,222 730,167C697,112 651,68 594,37C537,5 473,-11 403,-11C333,-11 269,5 212,37C155,68 110,112 77,167C44,222 27,283 27,351C27,418 44,480 77,535C110,590 155,633 212,664C269,695 332,711 403,711C473,711 537,695 594,664C651,633 697,590 730,535C763,480 779,418 779,351M189,351C189,310 199,272 219,238C238,204 265,177 298,157C331,137 366,127 405,127C444,127 479,137 512,157C544,176 570,203 589,238C608,272 617,310 617,351C617,392 608,429 589,463C570,497 544,524 512,544C479,563 444,573 405,573C366,573 330,563 297,544C264,524 237,497 218,463C199,429 189,392 189,351M601,752l-134,0l-64,57l-65,-57l-134,0l111,115l174,0M448,1049l112,-70l-150,-82l-98,27z"
   horiz-adv-x="806"
   unicode="Ố" />
<glyph
   id="glyph264"
   d="M779,351C779,284 763,222 730,167C697,112 651,68 594,37C537,5 473,-11 403,-11C333,-11 269,5 212,37C155,68 110,112 77,167C44,222 27,283 27,351C27,418 44,480 77,535C110,590 155,633 212,664C269,695 332,711 403,711C473,711 537,695 594,664C651,633 697,590 730,535C763,480 779,418 779,351M189,351C189,310 199,272 219,238C238,204 265,177 298,157C331,137 366,127 405,127C444,127 479,137 512,157C544,176 570,203 589,238C608,272 617,310 617,351C617,392 608,429 589,463C570,497 544,524 512,544C479,563 444,573 405,573C366,573 330,563 297,544C264,524 237,497 218,463C199,429 189,392 189,351M486,-156C486,-181 478,-202 463,-218C447,-234 427,-242 402,-242C378,-242 358,-234 343,-217C327,-201 319,-181 319,-156C319,-131 327,-110 343,-94C358,-78 378,-70 402,-70C427,-70 447,-78 463,-94C478,-110 486,-131 486,-156M582,759l-122,0l-57,65l-58,-65l-121,0l108,148l141,0z"
   horiz-adv-x="806"
   unicode="Ộ" />
<glyph
   id="glyph266"
   d="M779,351C779,284 763,222 730,167C697,112 651,68 594,37C537,5 473,-11 403,-11C333,-11 269,5 212,37C155,68 110,112 77,167C44,222 27,283 27,351C27,418 44,480 77,535C110,590 155,633 212,664C269,695 332,711 403,711C473,711 537,695 594,664C651,633 697,590 730,535C763,480 779,418 779,351M189,351C189,310 199,272 219,238C238,204 265,177 298,157C331,137 366,127 405,127C444,127 479,137 512,157C544,176 570,203 589,238C608,272 617,310 617,351C617,392 608,429 589,463C570,497 544,524 512,544C479,563 444,573 405,573C366,573 330,563 297,544C264,524 237,497 218,463C199,429 189,392 189,351M601,752l-134,0l-64,57l-65,-57l-134,0l111,115l174,0M345,1049l135,-125l-97,-27l-151,82z"
   horiz-adv-x="806"
   unicode="Ồ" />
<glyph
   id="glyph268"
   d="M779,351C779,284 763,222 730,167C697,112 651,68 594,37C537,5 473,-11 403,-11C333,-11 269,5 212,37C155,68 110,112 77,167C44,222 27,283 27,351C27,418 44,480 77,535C110,590 155,633 212,664C269,695 332,711 403,711C473,711 537,695 594,664C651,633 697,590 730,535C763,480 779,418 779,351M189,351C189,310 199,272 219,238C238,204 265,177 298,157C331,137 366,127 405,127C444,127 479,137 512,157C544,176 570,203 589,238C608,272 617,310 617,351C617,392 608,429 589,463C570,497 544,524 512,544C479,563 444,573 405,573C366,573 330,563 297,544C264,524 237,497 218,463C199,429 189,392 189,351M617,752l-134,0l-64,57l-65,-57l-134,0l111,115l174,0M505,997C505,962 481,929 434,896l-66,26C392,939 404,955 404,970C404,976 402,981 398,984C394,987 389,988 382,988C371,988 361,985 352,978l-40,58C345,1057 379,1067 413,1067C442,1067 464,1060 481,1047C497,1034 505,1017 505,997z"
   horiz-adv-x="806"
   unicode="Ổ" />
<glyph
   id="glyph270"
   d="M779,351C779,284 763,222 730,167C697,112 651,68 594,37C537,5 473,-11 403,-11C333,-11 269,5 212,37C155,68 110,112 77,167C44,222 27,283 27,351C27,418 44,480 77,535C110,590 155,633 212,664C269,695 332,711 403,711C473,711 537,695 594,664C651,633 697,590 730,535C763,480 779,418 779,351M189,351C189,310 199,272 219,238C238,204 265,177 298,157C331,137 366,127 405,127C444,127 479,137 512,157C544,176 570,203 589,238C608,272 617,310 617,351C617,392 608,429 589,463C570,497 544,524 512,544C479,563 444,573 405,573C366,573 330,563 297,544C264,524 237,497 218,463C199,429 189,392 189,351M597,752l-134,0l-64,57l-65,-57l-134,0l111,115l174,0M478,901C462,901 447,903 433,908C419,913 403,919 384,928C382,929 375,932 364,937C352,942 342,944 335,944C324,944 316,941 311,934C306,927 304,917 304,904l-76,0C228,945 235,976 249,999C263,1021 286,1032 318,1032C334,1032 350,1030 365,1025C380,1020 396,1014 414,1005C437,994 453,989 462,989C473,989 480,992 485,999C490,1006 492,1016 492,1029l77,0C569,988 562,956 548,934C533,912 510,901 478,901z"
   horiz-adv-x="806"
   unicode="Ỗ" />
<glyph
   id="glyph272"
   d="M779,351C779,284 763,222 730,167C697,112 651,68 594,37C537,5 473,-11 403,-11C333,-11 269,5 212,37C155,68 110,112 77,167C44,222 27,283 27,351C27,418 44,480 77,535C110,590 155,633 212,664C269,695 332,711 403,711C473,711 537,695 594,664C651,633 697,590 730,535C763,480 779,418 779,351M189,351C189,310 199,272 219,238C238,204 265,177 298,157C331,137 366,127 405,127C444,127 479,137 512,157C544,176 570,203 589,238C608,272 617,310 617,351C617,392 608,429 589,463C570,497 544,524 512,544C479,563 444,573 405,573C366,573 330,563 297,544C264,524 237,497 218,463C199,429 189,392 189,351M299,919l79,-157l-109,-10l-91,120M483,919l80,-157l-109,-10l-91,120z"
   horiz-adv-x="806"
   unicode="Ȍ" />
<glyph
   id="glyph274"
   d="M779,351C779,284 763,222 730,167C697,112 651,68 594,37C537,5 473,-11 403,-11C333,-11 269,5 212,37C155,68 110,112 77,167C44,222 27,283 27,351C27,418 44,480 77,535C110,590 155,633 212,664C269,695 332,711 403,711C473,711 537,695 594,664C651,633 697,590 730,535C763,480 779,418 779,351M189,351C189,310 199,272 219,238C238,204 265,177 298,157C331,137 366,127 405,127C444,127 479,137 512,157C544,176 570,203 589,238C608,272 617,310 617,351C617,392 608,429 589,463C570,497 544,524 512,544C479,563 444,573 405,573C366,573 330,563 297,544C264,524 237,497 218,463C199,429 189,392 189,351M380,828C380,807 374,790 361,777C348,763 331,756 310,756C289,756 273,763 260,777C247,790 240,807 240,828C240,849 247,867 260,880C273,893 289,900 310,900C331,900 348,893 361,880C374,867 380,849 380,828M567,828C567,807 560,790 547,777C534,763 517,756 497,756C476,756 459,763 446,777C433,790 426,807 426,828C426,849 433,866 446,880C459,893 476,900 497,900C517,900 534,893 547,880C560,866 567,849 567,828z"
   horiz-adv-x="806"
   unicode="Ö" />
<glyph
   id="glyph276"
   d="M1387,351C1387,284 1371,222 1338,167C1305,112 1259,68 1202,37C1145,5 1081,-11 1011,-11C941,-11 877,5 820,37C763,68 718,112 685,167C652,222 635,283 635,351C635,418 652,480 685,535C718,590 763,633 820,664C877,695 940,711 1011,711C1081,711 1145,695 1202,664C1259,633 1305,590 1338,535C1371,480 1387,418 1387,351M797,351C797,310 807,272 827,238C846,204 873,177 906,157C939,137 974,127 1013,127C1052,127 1087,137 1120,157C1152,176 1178,203 1197,238C1216,272 1225,310 1225,351C1225,392 1216,429 1197,463C1178,497 1152,524 1120,544C1087,563 1052,573 1013,573C974,573 938,563 905,544C872,524 845,497 826,463C807,429 797,392 797,351M379,827C379,807 373,790 360,777C347,763 330,756 310,756C290,756 274,763 261,777C248,790 241,807 241,827C241,848 248,865 261,878C274,891 290,898 310,898C330,898 347,891 360,878C373,865 379,848 379,827M564,827C564,807 558,790 545,777C532,763 515,756 496,756C476,756 459,763 446,777C433,790 426,807 426,827C426,848 433,865 446,878C459,891 475,898 496,898C515,898 532,891 545,878C558,865 564,848 564,827M263,1026l278,0l0,-90l-278,0z"
   horiz-adv-x="806"
   unicode="Ȫ" />
<glyph
   id="glyph278"
   d="M1371,351C1371,284 1355,222 1322,167C1289,112 1243,68 1186,37C1129,5 1065,-11 995,-11C925,-11 861,5 804,37C747,68 702,112 669,167C636,222 619,283 619,351C619,418 636,480 669,535C702,590 747,633 804,664C861,695 924,711 995,711C1065,711 1129,695 1186,664C1243,633 1289,590 1322,535C1355,480 1371,418 1371,351M781,351C781,310 791,272 811,238C830,204 857,177 890,157C923,137 958,127 997,127C1036,127 1071,137 1104,157C1136,176 1162,203 1181,238C1200,272 1209,310 1209,351C1209,392 1200,429 1181,463C1162,497 1136,524 1104,544C1071,563 1036,573 997,573C958,573 922,563 889,544C856,524 829,497 810,463C791,429 781,392 781,351M533,834C533,812 526,794 512,780C497,765 479,758 458,758C437,758 419,765 405,780C391,794 384,812 384,834C384,856 391,874 405,889C419,903 437,910 458,910C479,910 497,903 512,889C526,875 533,857 533,834M320,1028l278,0l0,-90l-278,0z"
   horiz-adv-x="806"
   unicode="Ȱ" />
<glyph
   id="glyph280"
   d="M779,351C779,284 763,222 730,167C697,112 651,68 594,37C537,5 473,-11 403,-11C333,-11 269,5 212,37C155,68 110,112 77,167C44,222 27,283 27,351C27,418 44,480 77,535C110,590 155,633 212,664C269,695 332,711 403,711C473,711 537,695 594,664C651,633 697,590 730,535C763,480 779,418 779,351M189,351C189,310 199,272 219,238C238,204 265,177 298,157C331,137 366,127 405,127C444,127 479,137 512,157C544,176 570,203 589,238C608,272 617,310 617,351C617,392 608,429 589,463C570,497 544,524 512,544C479,563 444,573 405,573C366,573 330,563 297,544C264,524 237,497 218,463C199,429 189,392 189,351M486,-156C486,-181 478,-202 463,-218C447,-234 427,-242 402,-242C378,-242 358,-234 343,-217C327,-201 319,-181 319,-156C319,-131 327,-110 343,-94C358,-78 378,-70 402,-70C427,-70 447,-78 463,-94C478,-110 486,-131 486,-156z"
   horiz-adv-x="806"
   unicode="Ọ" />
<glyph
   id="glyph282"
   d="M779,351C779,284 763,222 730,167C697,112 651,68 594,37C537,5 473,-11 403,-11C333,-11 269,5 212,37C155,68 110,112 77,167C44,222 27,283 27,351C27,418 44,480 77,535C110,590 155,633 212,664C269,695 332,711 403,711C473,711 537,695 594,664C651,633 697,590 730,535C763,480 779,418 779,351M189,351C189,310 199,272 219,238C238,204 265,177 298,157C331,137 366,127 405,127C444,127 479,137 512,157C544,176 570,203 589,238C608,272 617,310 617,351C617,392 608,429 589,463C570,497 544,524 512,544C479,563 444,573 405,573C366,573 330,563 297,544C264,524 237,497 218,463C199,429 189,392 189,351M368,916l104,-153l-112,-10l-128,110z"
   horiz-adv-x="806"
   unicode="Ò" />
<glyph
   id="glyph284"
   d="M779,351C779,284 763,222 730,167C697,112 651,68 594,37C537,5 473,-11 403,-11C333,-11 269,5 212,37C155,68 110,112 77,167C44,222 27,283 27,351C27,418 44,480 77,535C110,590 155,633 212,664C269,695 332,711 403,711C473,711 537,695 594,664C651,633 697,590 730,535C763,480 779,418 779,351M189,351C189,310 199,272 219,238C238,204 265,177 298,157C331,137 366,127 405,127C444,127 479,137 512,157C544,176 570,203 589,238C608,272 617,310 617,351C617,392 608,429 589,463C570,497 544,524 512,544C479,563 444,573 405,573C366,573 330,563 297,544C264,524 237,497 218,463C199,429 189,392 189,351M515,877C515,855 508,832 493,809C478,785 457,763 432,742l-72,31C373,786 384,799 392,813C399,827 403,840 403,851C403,859 400,865 395,870C390,875 383,877 375,877C363,877 351,873 338,864l-42,68C331,955 368,967 407,967C440,967 466,959 486,943C505,927 515,905 515,877z"
   horiz-adv-x="806"
   unicode="Ỏ" />
<glyph
   id="glyph286"
   d="M786,742C786,708 777,678 759,652C741,626 716,607 684,595C715,563 738,526 755,485C771,443 779,398 779,351C779,284 763,222 730,167C697,112 651,68 594,37C537,5 473,-11 403,-11C333,-11 269,5 212,37C155,68 110,112 77,167C44,222 27,283 27,351C27,418 44,480 77,535C110,590 155,633 212,664C269,695 332,711 403,711C466,711 524,698 576,673C587,670 595,669 602,669C621,669 636,676 647,689C658,702 663,718 663,737C663,760 656,782 641,803l118,43C777,812 786,777 786,742M617,351C617,392 608,429 589,463C570,497 544,524 512,544C479,563 444,573 405,573C366,573 330,563 297,544C264,524 237,497 218,463C199,429 189,392 189,351C189,310 199,272 219,238C238,204 265,177 298,157C331,137 366,127 405,127C444,127 479,137 512,157C544,176 570,203 589,238C608,272 617,310 617,351z"
   horiz-adv-x="833"
   unicode="Ơ" />
<glyph
   id="glyph288"
   d="M786,742C786,708 777,678 759,652C741,626 716,607 684,595C715,563 738,526 755,485C771,443 779,398 779,351C779,284 763,222 730,167C697,112 651,68 594,37C537,5 473,-11 403,-11C333,-11 269,5 212,37C155,68 110,112 77,167C44,222 27,283 27,351C27,418 44,480 77,535C110,590 155,633 212,664C269,695 332,711 403,711C466,711 524,698 576,673C587,670 595,669 602,669C621,669 636,676 647,689C658,702 663,718 663,737C663,760 656,782 641,803l118,43C777,812 786,777 786,742M617,351C617,392 608,429 589,463C570,497 544,524 512,544C479,563 444,573 405,573C366,573 330,563 297,544C264,524 237,497 218,463C199,429 189,392 189,351C189,310 199,272 219,238C238,204 265,177 298,157C331,137 366,127 405,127C444,127 479,137 512,157C544,176 570,203 589,238C608,272 617,310 617,351M438,916l136,-53l-136,-110l-112,10z"
   horiz-adv-x="833"
   unicode="Ớ" />
<glyph
   id="glyph290"
   d="M786,742C786,708 777,678 759,652C741,626 716,607 684,595C715,563 738,526 755,485C771,443 779,398 779,351C779,284 763,222 730,167C697,112 651,68 594,37C537,5 473,-11 403,-11C333,-11 269,5 212,37C155,68 110,112 77,167C44,222 27,283 27,351C27,418 44,480 77,535C110,590 155,633 212,664C269,695 332,711 403,711C466,711 524,698 576,673C587,670 595,669 602,669C621,669 636,676 647,689C658,702 663,718 663,737C663,760 656,782 641,803l118,43C777,812 786,777 786,742M617,351C617,392 608,429 589,463C570,497 544,524 512,544C479,563 444,573 405,573C366,573 330,563 297,544C264,524 237,497 218,463C199,429 189,392 189,351C189,310 199,272 219,238C238,204 265,177 298,157C331,137 366,127 405,127C444,127 479,137 512,157C544,176 570,203 589,238C608,272 617,310 617,351M486,-156C486,-181 478,-202 463,-218C447,-234 427,-242 402,-242C378,-242 358,-234 343,-217C327,-201 319,-181 319,-156C319,-131 327,-110 343,-94C358,-78 378,-70 402,-70C427,-70 447,-78 463,-94C478,-110 486,-131 486,-156z"
   horiz-adv-x="833"
   unicode="Ợ" />
<glyph
   id="glyph292"
   d="M786,742C786,708 777,678 759,652C741,626 716,607 684,595C715,563 738,526 755,485C771,443 779,398 779,351C779,284 763,222 730,167C697,112 651,68 594,37C537,5 473,-11 403,-11C333,-11 269,5 212,37C155,68 110,112 77,167C44,222 27,283 27,351C27,418 44,480 77,535C110,590 155,633 212,664C269,695 332,711 403,711C466,711 524,698 576,673C587,670 595,669 602,669C621,669 636,676 647,689C658,702 663,718 663,737C663,760 656,782 641,803l118,43C777,812 786,777 786,742M617,351C617,392 608,429 589,463C570,497 544,524 512,544C479,563 444,573 405,573C366,573 330,563 297,544C264,524 237,497 218,463C199,429 189,392 189,351C189,310 199,272 219,238C238,204 265,177 298,157C331,137 366,127 405,127C444,127 479,137 512,157C544,176 570,203 589,238C608,272 617,310 617,351M368,916l104,-153l-112,-10l-128,110z"
   horiz-adv-x="833"
   unicode="Ờ" />
<glyph
   id="glyph294"
   d="M786,742C786,708 777,678 759,652C741,626 716,607 684,595C715,563 738,526 755,485C771,443 779,398 779,351C779,284 763,222 730,167C697,112 651,68 594,37C537,5 473,-11 403,-11C333,-11 269,5 212,37C155,68 110,112 77,167C44,222 27,283 27,351C27,418 44,480 77,535C110,590 155,633 212,664C269,695 332,711 403,711C466,711 524,698 576,673C587,670 595,669 602,669C621,669 636,676 647,689C658,702 663,718 663,737C663,760 656,782 641,803l118,43C777,812 786,777 786,742M617,351C617,392 608,429 589,463C570,497 544,524 512,544C479,563 444,573 405,573C366,573 330,563 297,544C264,524 237,497 218,463C199,429 189,392 189,351C189,310 199,272 219,238C238,204 265,177 298,157C331,137 366,127 405,127C444,127 479,137 512,157C544,176 570,203 589,238C608,272 617,310 617,351M515,877C515,855 508,832 493,809C478,785 457,763 432,742l-72,31C373,786 384,799 392,813C399,827 403,840 403,851C403,859 400,865 395,870C390,875 383,877 375,877C363,877 351,873 338,864l-42,68C331,955 368,967 407,967C440,967 466,959 486,943C505,927 515,905 515,877z"
   horiz-adv-x="833"
   unicode="Ở" />
<glyph
   id="glyph296"
   d="M786,742C786,708 777,678 759,652C741,626 716,607 684,595C715,563 738,526 755,485C771,443 779,398 779,351C779,284 763,222 730,167C697,112 651,68 594,37C537,5 473,-11 403,-11C333,-11 269,5 212,37C155,68 110,112 77,167C44,222 27,283 27,351C27,418 44,480 77,535C110,590 155,633 212,664C269,695 332,711 403,711C466,711 524,698 576,673C587,670 595,669 602,669C621,669 636,676 647,689C658,702 663,718 663,737C663,760 656,782 641,803l118,43C777,812 786,777 786,742M617,351C617,392 608,429 589,463C570,497 544,524 512,544C479,563 444,573 405,573C366,573 330,563 297,544C264,524 237,497 218,463C199,429 189,392 189,351C189,310 199,272 219,238C238,204 265,177 298,157C331,137 366,127 405,127C444,127 479,137 512,157C544,176 570,203 589,238C608,272 617,310 617,351M486,755C471,755 457,758 444,763C431,768 415,775 397,784C389,789 381,793 373,796C365,799 358,801 353,801C343,801 336,798 332,791C328,784 326,773 325,758l-91,0C234,806 241,843 256,869C270,895 293,908 326,908C341,908 355,906 368,901C381,896 397,888 415,879C436,867 450,861 459,861C469,861 476,865 480,872C484,879 486,890 487,904l91,0C578,857 571,820 557,794C542,768 519,755 486,755z"
   horiz-adv-x="833"
   unicode="Ỡ" />
<glyph
   id="glyph298"
   d="M779,351C779,284 763,222 730,167C697,112 651,68 594,37C537,5 473,-11 403,-11C333,-11 269,5 212,37C155,68 110,112 77,167C44,222 27,283 27,351C27,418 44,480 77,535C110,590 155,633 212,664C269,695 332,711 403,711C473,711 537,695 594,664C651,633 697,590 730,535C763,480 779,418 779,351M189,351C189,310 199,272 219,238C238,204 265,177 298,157C331,137 366,127 405,127C444,127 479,137 512,157C544,176 570,203 589,238C608,272 617,310 617,351C617,392 608,429 589,463C570,497 544,524 512,544C479,563 444,573 405,573C366,573 330,563 297,544C264,524 237,497 218,463C199,429 189,392 189,351M318,920l121,-47l-91,-120l-110,10M503,920l120,-47l-91,-120l-109,10z"
   horiz-adv-x="806"
   unicode="Ő" />
<glyph
   id="glyph300"
   d="M779,351C779,284 763,222 730,167C697,112 651,68 594,37C537,5 473,-11 403,-11C333,-11 269,5 212,37C155,68 110,112 77,167C44,222 27,283 27,351C27,418 44,480 77,535C110,590 155,633 212,664C269,695 332,711 403,711C473,711 537,695 594,664C651,633 697,590 730,535C763,480 779,418 779,351M189,351C189,310 199,272 219,238C238,204 265,177 298,157C331,137 366,127 405,127C444,127 479,137 512,157C544,176 570,203 589,238C608,272 617,310 617,351C617,392 608,429 589,463C570,497 544,524 512,544C479,563 444,573 405,573C366,573 330,563 297,544C264,524 237,497 218,463C199,429 189,392 189,351M247,759C248,806 263,843 292,871C321,899 358,913 403,913C448,913 484,899 513,871C542,843 557,806 559,759l-98,0C460,776 454,791 443,802C432,813 419,819 403,819C387,819 374,813 363,802C352,791 346,776 345,759z"
   horiz-adv-x="806"
   unicode="Ȏ" />
<glyph
   id="glyph302"
   d="M779,351C779,284 763,222 730,167C697,112 651,68 594,37C537,5 473,-11 403,-11C333,-11 269,5 212,37C155,68 110,112 77,167C44,222 27,283 27,351C27,418 44,480 77,535C110,590 155,633 212,664C269,695 332,711 403,711C473,711 537,695 594,664C651,633 697,590 730,535C763,480 779,418 779,351M189,351C189,310 199,272 219,238C238,204 265,177 298,157C331,137 366,127 405,127C444,127 479,137 512,157C544,176 570,203 589,238C608,272 617,310 617,351C617,392 608,429 589,463C570,497 544,524 512,544C479,563 444,573 405,573C366,573 330,563 297,544C264,524 237,497 218,463C199,429 189,392 189,351M237,856l332,0l0,-94l-332,0z"
   horiz-adv-x="806"
   unicode="Ō" />
<glyph
   id="glyph304"
   d="M779,351C779,284 763,222 730,167C697,112 651,68 594,37C537,5 473,-11 403,-11C333,-11 269,5 212,37C155,68 110,112 77,167C44,222 27,283 27,351C27,418 44,480 77,535C110,590 155,633 212,664C269,695 332,711 403,711C473,711 537,695 594,664C651,633 697,590 730,535C763,480 779,418 779,351M189,351C189,310 199,272 219,238C238,204 265,177 298,157C331,137 366,127 405,127C444,127 479,137 512,157C544,176 570,203 589,238C608,272 617,310 617,351C617,392 608,429 589,463C570,497 544,524 512,544C479,563 444,573 405,573C366,573 330,563 297,544C264,524 237,497 218,463C199,429 189,392 189,351M254,851l278,0l0,-90l-278,0M439,1045l112,-70l-150,-82l-98,27z"
   horiz-adv-x="806"
   unicode="Ṓ" />
<glyph
   id="glyph306"
   d="M779,351C779,284 763,222 730,167C697,112 651,68 594,37C537,5 473,-11 403,-11C333,-11 269,5 212,37C155,68 110,112 77,167C44,222 27,283 27,351C27,418 44,480 77,535C110,590 155,633 212,664C269,695 332,711 403,711C473,711 537,695 594,664C651,633 697,590 730,535C763,480 779,418 779,351M189,351C189,310 199,272 219,238C238,204 265,177 298,157C331,137 366,127 405,127C444,127 479,137 512,157C544,176 570,203 589,238C608,272 617,310 617,351C617,392 608,429 589,463C570,497 544,524 512,544C479,563 444,573 405,573C366,573 330,563 297,544C264,524 237,497 218,463C199,429 189,392 189,351M278,851l278,0l0,-90l-278,0M360,1045l135,-125l-97,-27l-151,82z"
   horiz-adv-x="806"
   unicode="Ṑ" />
<glyph
   id="glyph308"
   d="M605,43C583,20 565,-4 552,-29C538,-55 531,-77 531,-96C531,-117 539,-127 555,-127C566,-127 576,-124 585,-119l28,-88C581,-221 551,-228 522,-228C489,-228 462,-219 442,-200C421,-182 411,-156 411,-121C411,-83 427,-45 458,-8C440,-10 422,-11 403,-11C333,-11 269,5 212,37C155,68 110,112 77,167C44,222 27,283 27,351C27,418 44,480 77,535C110,590 155,633 212,664C269,695 332,711 403,711C473,711 537,695 594,664C651,633 697,590 730,535C763,480 779,418 779,351C779,286 764,226 733,172C702,118 659,75 605,43M405,127C444,127 479,137 512,157C544,176 570,203 589,238C608,272 617,310 617,351C617,392 608,429 589,463C570,497 544,524 512,544C479,563 444,573 405,573C366,573 330,563 297,544C264,524 237,497 218,463C199,429 189,392 189,351C189,310 199,272 219,238C238,204 265,177 298,157C331,137 366,127 405,127z"
   horiz-adv-x="806"
   unicode="Ǫ" />
<glyph
   id="glyph310"
   d="M779,349C779,282 763,222 730,167C697,112 651,69 594,38C537,7 473,-9 403,-9C348,-9 297,1 248,21l-49,-76l-109,0l77,121C123,99 89,141 64,190C39,239 27,292 27,349C27,416 43,476 76,530C109,584 154,626 211,657C268,688 332,703 403,703C456,703 507,694 556,675l51,80l109,0l-79,-125C681,598 716,558 741,509C766,460 779,406 779,349M250,196l228,356C456,561 432,565 405,565C366,565 330,556 297,537C264,518 237,492 218,459C199,426 189,389 189,348C189,319 194,291 205,265C216,239 231,216 250,196M617,348C617,378 612,406 601,433C590,460 574,483 555,503l-229,-359C351,134 377,129 405,129C444,129 479,139 512,158C544,177 570,204 589,238C608,271 617,308 617,348z"
   horiz-adv-x="806"
   unicode="Ø" />
<glyph
   id="glyph312"
   d="M779,349C779,282 763,222 730,167C697,112 651,69 594,38C537,7 473,-9 403,-9C348,-9 297,1 248,21l-49,-76l-109,0l77,121C123,99 89,141 64,190C39,239 27,292 27,349C27,416 43,476 76,530C109,584 154,626 211,657C268,688 332,703 403,703C456,703 507,694 556,675l51,80l109,0l-79,-125C681,598 716,558 741,509C766,460 779,406 779,349M250,196l228,356C456,561 432,565 405,565C366,565 330,556 297,537C264,518 237,492 218,459C199,426 189,389 189,348C189,319 194,291 205,265C216,239 231,216 250,196M617,348C617,378 612,406 601,433C590,460 574,483 555,503l-229,-359C351,134 377,129 405,129C444,129 479,139 512,158C544,177 570,204 589,238C608,271 617,308 617,348M446,916l136,-53l-136,-110l-112,10z"
   horiz-adv-x="806"
   unicode="Ǿ" />
<glyph
   id="glyph314"
   d="M779,351C779,284 763,222 730,167C697,112 651,68 594,37C537,5 473,-11 403,-11C333,-11 269,5 212,37C155,68 110,112 77,167C44,222 27,283 27,351C27,418 44,480 77,535C110,590 155,633 212,664C269,695 332,711 403,711C473,711 537,695 594,664C651,633 697,590 730,535C763,480 779,418 779,351M189,351C189,310 199,272 219,238C238,204 265,177 298,157C331,137 366,127 405,127C444,127 479,137 512,157C544,176 570,203 589,238C608,272 617,310 617,351C617,392 608,429 589,463C570,497 544,524 512,544C479,563 444,573 405,573C366,573 330,563 297,544C264,524 237,497 218,463C199,429 189,392 189,351M486,755C471,755 457,758 444,763C431,768 415,775 397,784C389,789 381,793 373,796C365,799 358,801 353,801C343,801 336,798 332,791C328,784 326,773 325,758l-91,0C234,806 241,843 256,869C270,895 293,908 326,908C341,908 355,906 368,901C381,896 397,888 415,879C436,867 450,861 459,861C469,861 476,865 480,872C484,879 486,890 487,904l91,0C578,857 571,820 557,794C542,768 519,755 486,755z"
   horiz-adv-x="806"
   unicode="Õ" />
<glyph
   id="glyph316"
   d="M1389,351C1389,284 1373,222 1340,167C1307,112 1261,68 1204,37C1147,5 1083,-11 1013,-11C943,-11 879,5 822,37C765,68 720,112 687,167C654,222 637,283 637,351C637,418 654,480 687,535C720,590 765,633 822,664C879,695 942,711 1013,711C1083,711 1147,695 1204,664C1261,633 1307,590 1340,535C1373,480 1389,418 1389,351M799,351C799,310 809,272 829,238C848,204 875,177 908,157C941,137 976,127 1015,127C1054,127 1089,137 1122,157C1154,176 1180,203 1199,238C1218,272 1227,310 1227,351C1227,392 1218,429 1199,463C1180,497 1154,524 1122,544C1089,563 1054,573 1015,573C976,573 940,563 907,544C874,524 847,497 828,463C809,429 799,392 799,351M483,757C467,757 452,759 438,764C424,769 408,775 389,784C387,785 380,788 369,793C357,798 347,800 340,800C329,800 321,797 316,790C311,783 309,773 309,760l-76,0C233,801 240,832 254,855C268,877 291,888 323,888C339,888 355,886 370,881C385,876 401,870 419,861C442,850 458,845 467,845C478,845 485,848 490,855C495,862 497,872 497,885l77,0C574,844 567,812 553,790C538,768 515,757 483,757M450,1075l112,-70l-150,-82l-98,27z"
   horiz-adv-x="806"
   unicode="Ṍ" />
<glyph
   id="glyph318"
   d="M1395,351C1395,284 1379,222 1346,167C1313,112 1267,68 1210,37C1153,5 1089,-11 1019,-11C949,-11 885,5 828,37C771,68 726,112 693,167C660,222 643,283 643,351C643,418 660,480 693,535C726,590 771,633 828,664C885,695 948,711 1019,711C1089,711 1153,695 1210,664C1267,633 1313,590 1346,535C1379,480 1395,418 1395,351M805,351C805,310 815,272 835,238C854,204 881,177 914,157C947,137 982,127 1021,127C1060,127 1095,137 1128,157C1160,176 1186,203 1205,238C1224,272 1233,310 1233,351C1233,392 1224,429 1205,463C1186,497 1160,524 1128,544C1095,563 1060,573 1021,573C982,573 946,563 913,544C880,524 853,497 834,463C815,429 805,392 805,351M468,757C452,757 437,759 423,764C409,769 393,775 374,784C372,785 365,788 354,793C342,798 332,800 325,800C314,800 306,797 301,790C296,783 294,773 294,760l-76,0C218,801 225,832 239,855C253,877 276,888 308,888C324,888 340,886 355,881C370,876 386,870 404,861C427,850 443,845 452,845C463,845 470,848 475,855C480,862 482,872 482,885l77,0C559,844 552,812 538,790C523,768 500,757 468,757M366,993C366,973 360,956 347,943C334,929 317,922 297,922C277,922 261,929 248,943C235,956 228,973 228,993C228,1014 235,1031 248,1044C261,1057 277,1064 297,1064C317,1064 334,1057 347,1044C360,1031 366,1014 366,993M551,993C551,973 545,956 532,943C519,929 502,922 483,922C463,922 446,929 433,943C420,956 413,973 413,993C413,1014 420,1031 433,1044C446,1057 462,1064 483,1064C502,1064 519,1057 532,1044C545,1031 551,1014 551,993z"
   horiz-adv-x="806"
   unicode="Ṏ" />
<glyph
   id="glyph320"
   d="M1389,351C1389,284 1373,222 1340,167C1307,112 1261,68 1204,37C1147,5 1083,-11 1013,-11C943,-11 879,5 822,37C765,68 720,112 687,167C654,222 637,283 637,351C637,418 654,480 687,535C720,590 765,633 822,664C879,695 942,711 1013,711C1083,711 1147,695 1204,664C1261,633 1307,590 1340,535C1373,480 1389,418 1389,351M799,351C799,310 809,272 829,238C848,204 875,177 908,157C941,137 976,127 1015,127C1054,127 1089,137 1122,157C1154,176 1180,203 1199,238C1218,272 1227,310 1227,351C1227,392 1218,429 1199,463C1180,497 1154,524 1122,544C1089,563 1054,573 1015,573C976,573 940,563 907,544C874,524 847,497 828,463C809,429 799,392 799,351M483,757C467,757 452,759 438,764C424,769 408,775 389,784C387,785 380,788 369,793C357,798 347,800 340,800C329,800 321,797 316,790C311,783 309,773 309,760l-76,0C233,801 240,832 254,855C268,877 291,888 323,888C339,888 355,886 370,881C385,876 401,870 419,861C442,850 458,845 467,845C478,845 485,848 490,855C495,862 497,872 497,885l77,0C574,844 567,812 553,790C538,768 515,757 483,757M265,1015l278,0l0,-90l-278,0z"
   horiz-adv-x="806"
   unicode="Ȭ" />
<glyph
   id="glyph322"
   d="M1061,132l0,-132l-659,0C332,0 269,15 212,46C155,77 110,119 77,172C44,225 27,285 27,350C27,415 43,475 76,528C109,581 154,623 211,654C268,685 332,700 402,700l648,0l0,-131l-375,0l0,-152l337,0l0,-131l-337,0l0,-154M517,135l0,429l-114,0C363,564 327,555 294,536C261,517 236,492 217,459C198,426 189,390 189,349C189,308 198,272 217,239C236,206 261,181 294,162C327,143 363,134 403,134z"
   horiz-adv-x="1108"
   unicode="Œ" />
<glyph
   id="glyph324"
   d="M654,457C654,376 630,313 581,268C532,223 463,200 374,200l-139,0l0,-200l-158,0l0,700l297,0C463,700 532,679 581,637C630,594 654,534 654,457M504,452C504,491 492,520 469,540C445,559 411,569 366,569l-131,0l0,-237l131,0C411,332 445,342 469,363C492,383 504,413 504,452z"
   horiz-adv-x="678"
   unicode="P" />
<glyph
   id="glyph326"
   d="M662,367C662,288 636,226 584,182C531,137 459,115 366,115l-131,0l0,-115l-158,0l0,700l158,0l0,-94l131,0C459,606 531,585 584,543C636,501 662,442 662,367M500,362C500,400 488,429 464,450C440,470 405,480 359,480l-124,0l0,-239l124,0C405,241 440,251 464,272C488,293 500,323 500,362z"
   horiz-adv-x="685"
   unicode="Þ" />
<glyph
   id="glyph328"
   d="M816,-85C789,-109 758,-128 723,-141C687,-155 652,-162 618,-162C571,-162 529,-149 491,-122C452,-96 420,-59 395,-11C326,-10 263,7 207,39C151,71 107,114 75,169C43,224 27,284 27,351C27,418 44,480 77,535C110,590 155,633 212,664C269,695 332,711 403,711C473,711 537,695 594,664C651,633 697,590 730,535C763,480 779,418 779,351C779,274 758,205 715,144C672,83 614,39 543,13C573,-20 604,-37 636,-37C653,-37 672,-32 693,-22C714,-13 736,1 759,18M405,127C444,127 479,137 512,157C544,176 570,203 589,238C608,272 617,310 617,351C617,392 608,429 589,463C570,497 544,524 512,544C479,563 444,573 405,573C366,573 330,563 297,544C264,524 237,497 218,463C199,429 189,392 189,351C189,310 199,272 219,238C238,204 265,177 298,157C331,137 366,127 405,127z"
   horiz-adv-x="812"
   unicode="Q" />
<glyph
   id="glyph330"
   d="M507,0l-111,200l-15,0l-146,0l0,-200l-158,0l0,700l304,0C472,700 543,679 593,637C643,594 668,534 668,457C668,403 657,357 635,319C612,280 580,251 537,231l149,-231M235,332l146,0C425,332 459,342 483,363C506,383 518,413 518,452C518,491 506,520 483,540C459,559 425,569 381,569l-146,0z"
   horiz-adv-x="724"
   unicode="R" />
<glyph
   id="glyph332"
   d="M507,0l-111,200l-15,0l-146,0l0,-200l-158,0l0,700l304,0C472,700 543,679 593,637C643,594 668,534 668,457C668,403 657,357 635,319C612,280 580,251 537,231l149,-231M235,332l146,0C425,332 459,342 483,363C506,383 518,413 518,452C518,491 506,520 483,540C459,559 425,569 381,569l-146,0M386,916l136,-53l-136,-110l-112,10z"
   horiz-adv-x="724"
   unicode="Ŕ" />
<glyph
   id="glyph334"
   d="M507,0l-111,200l-15,0l-146,0l0,-200l-158,0l0,700l304,0C472,700 543,679 593,637C643,594 668,534 668,457C668,403 657,357 635,319C612,280 580,251 537,231l149,-231M235,332l146,0C425,332 459,342 483,363C506,383 518,413 518,452C518,491 506,520 483,540C459,559 425,569 381,569l-146,0M389,906l121,0l-108,-148l-141,0l-109,148l122,0l58,-65z"
   horiz-adv-x="724"
   unicode="Ř" />
<glyph
   id="glyph336"
   d="M507,0l-111,200l-15,0l-146,0l0,-200l-158,0l0,700l304,0C472,700 543,679 593,637C643,594 668,534 668,457C668,403 657,357 635,319C612,280 580,251 537,231l149,-231M235,332l146,0C425,332 459,342 483,363C506,383 518,413 518,452C518,491 506,520 483,540C459,559 425,569 381,569l-146,0M295,-59l130,0l-68,-170l-95,0z"
   horiz-adv-x="724"
   unicode="Ŗ" />
<glyph
   id="glyph338"
   d="M507,0l-111,200l-15,0l-146,0l0,-200l-158,0l0,700l304,0C472,700 543,679 593,637C643,594 668,534 668,457C668,403 657,357 635,319C612,280 580,251 537,231l149,-231M235,332l146,0C425,332 459,342 483,363C506,383 518,413 518,452C518,491 506,520 483,540C459,559 425,569 381,569l-146,0M247,919l79,-157l-109,-10l-91,120M431,919l80,-157l-109,-10l-91,120z"
   horiz-adv-x="724"
   unicode="Ȑ" />
<glyph
   id="glyph340"
   d="M507,0l-111,200l-15,0l-146,0l0,-200l-158,0l0,700l304,0C472,700 543,679 593,637C643,594 668,534 668,457C668,403 657,357 635,319C612,280 580,251 537,231l149,-231M235,332l146,0C425,332 459,342 483,363C506,383 518,413 518,452C518,491 506,520 483,540C459,559 425,569 381,569l-146,0M443,-156C443,-181 435,-202 420,-218C404,-234 384,-242 359,-242C335,-242 315,-234 300,-217C284,-201 276,-181 276,-156C276,-131 284,-110 300,-94C315,-78 335,-70 359,-70C384,-70 404,-78 420,-94C435,-110 443,-131 443,-156z"
   horiz-adv-x="724"
   unicode="Ṛ" />
<glyph
   id="glyph342"
   d="M507,0l-111,200l-15,0l-146,0l0,-200l-158,0l0,700l304,0C472,700 543,679 593,637C643,594 668,534 668,457C668,403 657,357 635,319C612,280 580,251 537,231l149,-231M235,332l146,0C425,332 459,342 483,363C506,383 518,413 518,452C518,491 506,520 483,540C459,559 425,569 381,569l-146,0M195,759C196,806 211,843 240,871C269,899 306,913 351,913C396,913 432,899 461,871C490,843 505,806 507,759l-98,0C408,776 402,791 391,802C380,813 367,819 351,819C335,819 322,813 311,802C300,791 294,776 293,759z"
   horiz-adv-x="724"
   unicode="Ȓ" />
<glyph
   id="glyph344"
   d="M507,0l-111,200l-15,0l-146,0l0,-200l-158,0l0,700l304,0C472,700 543,679 593,637C643,594 668,534 668,457C668,403 657,357 635,319C612,280 580,251 537,231l149,-231M235,332l146,0C425,332 459,342 483,363C506,383 518,413 518,452C518,491 506,520 483,540C459,559 425,569 381,569l-146,0M208,-78l303,0l0,-94l-303,0z"
   horiz-adv-x="724"
   unicode="Ṟ" />
<glyph
   id="glyph346"
   d="M320,577C293,577 271,572 255,562C239,552 231,537 231,518C231,493 243,475 266,462C289,449 324,435 372,421C420,407 460,393 491,379C522,365 548,344 570,316C592,288 603,251 603,205C603,160 591,122 568,90C544,57 511,33 470,16C429,-1 382,-9 329,-9C272,-9 217,1 162,21C107,41 60,68 20,103l63,129C118,200 159,174 205,155C251,136 293,126 331,126C364,126 389,132 408,144C426,156 435,173 435,196C435,214 429,229 417,241C404,252 389,262 370,269C351,276 324,285 291,294C243,307 204,321 174,334C143,347 117,368 95,395C73,422 62,459 62,504C62,546 73,583 96,615C119,646 150,671 191,688C232,705 279,713 333,713C381,713 428,706 475,692C522,678 563,659 599,636l-61,-131C502,527 464,545 424,558C383,571 349,577 320,577z"
   horiz-adv-x="637"
   unicode="S" />
<glyph
   id="glyph348"
   d="M320,577C293,577 271,572 255,562C239,552 231,537 231,518C231,493 243,475 266,462C289,449 324,435 372,421C420,407 460,393 491,379C522,365 548,344 570,316C592,288 603,251 603,205C603,160 591,122 568,90C544,57 511,33 470,16C429,-1 382,-9 329,-9C272,-9 217,1 162,21C107,41 60,68 20,103l63,129C118,200 159,174 205,155C251,136 293,126 331,126C364,126 389,132 408,144C426,156 435,173 435,196C435,214 429,229 417,241C404,252 389,262 370,269C351,276 324,285 291,294C243,307 204,321 174,334C143,347 117,368 95,395C73,422 62,459 62,504C62,546 73,583 96,615C119,646 150,671 191,688C232,705 279,713 333,713C381,713 428,706 475,692C522,678 563,659 599,636l-61,-131C502,527 464,545 424,558C383,571 349,577 320,577M368,916l136,-53l-136,-110l-112,10z"
   horiz-adv-x="637"
   unicode="Ś" />
<glyph
   id="glyph350"
   d="M791,577C764,577 742,572 726,562C710,552 702,537 702,518C702,493 714,475 737,462C760,449 795,435 843,421C891,407 931,393 962,379C993,365 1019,344 1041,316C1063,288 1074,251 1074,205C1074,160 1062,122 1039,90C1015,57 982,33 941,16C900,-1 853,-9 800,-9C743,-9 688,1 633,21C578,41 531,68 491,103l63,129C589,200 630,174 676,155C722,136 764,126 802,126C835,126 860,132 879,144C897,156 906,173 906,196C906,214 900,229 888,241C875,252 860,262 841,269C822,276 795,285 762,294C714,307 675,321 645,334C614,347 588,368 566,395C544,422 533,459 533,504C533,546 544,583 567,615C590,646 621,671 662,688C703,705 750,713 804,713C852,713 899,706 946,692C993,678 1034,659 1070,636l-61,-131C973,527 935,545 895,558C854,571 820,577 791,577M344,898l112,-70l-150,-82l-98,27M407,997C407,975 400,957 386,943C371,928 353,921 332,921C311,921 293,928 279,943C265,957 258,975 258,997C258,1019 265,1037 279,1052C293,1066 311,1073 332,1073C353,1073 371,1066 386,1052C400,1038 407,1020 407,997z"
   horiz-adv-x="637"
   unicode="Ṥ" />
<glyph
   id="glyph352"
   d="M68,700l158,0l-19,-400l-139,0z"
   horiz-adv-x="294"
   unicode="Ꞌ" />
<glyph
   id="glyph354"
   d="M320,577C293,577 271,572 255,562C239,552 231,537 231,518C231,493 243,475 266,462C289,449 324,435 372,421C420,407 460,393 491,379C522,365 548,344 570,316C592,288 603,251 603,205C603,160 591,122 568,90C544,57 511,33 470,16C429,-1 382,-9 329,-9C272,-9 217,1 162,21C107,41 60,68 20,103l63,129C118,200 159,174 205,155C251,136 293,126 331,126C364,126 389,132 408,144C426,156 435,173 435,196C435,214 429,229 417,241C404,252 389,262 370,269C351,276 324,285 291,294C243,307 204,321 174,334C143,347 117,368 95,395C73,422 62,459 62,504C62,546 73,583 96,615C119,646 150,671 191,688C232,705 279,713 333,713C381,713 428,706 475,692C522,678 563,659 599,636l-61,-131C502,527 464,545 424,558C383,571 349,577 320,577M371,906l121,0l-108,-148l-141,0l-109,148l122,0l58,-65z"
   horiz-adv-x="637"
   unicode="Š" />
<glyph
   id="glyph356"
   d="M867,577C840,577 818,572 802,562C786,552 778,537 778,518C778,493 790,475 813,462C836,449 871,435 919,421C967,407 1007,393 1038,379C1069,365 1095,344 1117,316C1139,288 1150,251 1150,205C1150,160 1138,122 1115,90C1091,57 1058,33 1017,16C976,-1 929,-9 876,-9C819,-9 764,1 709,21C654,41 607,68 567,103l63,129C665,200 706,174 752,155C798,136 840,126 878,126C911,126 936,132 955,144C973,156 982,173 982,196C982,214 976,229 964,241C951,252 936,262 917,269C898,276 871,285 838,294C790,307 751,321 721,334C690,347 664,368 642,395C620,422 609,459 609,504C609,546 620,583 643,615C666,646 697,671 738,688C779,705 826,713 880,713C928,713 975,706 1022,692C1069,678 1110,659 1146,636l-61,-131C1049,527 1011,545 971,558C930,571 896,577 867,577M408,874l134,0l-111,-115l-174,0l-112,115l134,0l64,-57M417,987C417,965 410,947 396,933C381,918 363,911 342,911C321,911 303,918 289,933C275,947 268,965 268,987C268,1009 275,1027 289,1042C303,1056 321,1063 342,1063C363,1063 381,1056 396,1042C410,1028 417,1010 417,987z"
   horiz-adv-x="637"
   unicode="Ṧ" />
<glyph
   id="glyph358"
   d="M372,421C420,407 460,393 491,379C522,365 548,344 570,316C592,288 603,251 603,205C603,145 583,97 542,60C501,23 446,1 379,-6l-18,-48C389,-60 410,-70 423,-84C436,-99 443,-116 443,-135C443,-166 431,-189 408,-205C385,-221 355,-229 320,-229C286,-229 251,-222 215,-208l26,75C259,-140 277,-143 295,-143C307,-143 317,-141 325,-136C332,-132 336,-127 336,-121C336,-113 331,-107 322,-102C313,-98 300,-96 284,-96l-27,0l29,89C237,-2 189,10 143,29C96,48 55,73 20,103l63,129C118,200 159,174 205,155C251,136 293,126 331,126C364,126 389,132 408,144C426,156 435,173 435,196C435,214 429,229 417,241C404,252 389,262 370,269C351,276 324,285 291,294C243,307 204,321 174,334C143,347 117,368 95,395C73,422 62,459 62,504C62,546 73,583 96,615C119,646 150,671 191,688C232,705 279,713 333,713C381,713 428,706 475,692C522,678 563,659 599,636l-61,-131C502,527 464,545 424,558C383,571 349,577 320,577C293,577 271,572 255,562C239,552 231,537 231,518C231,493 243,475 266,462C289,449 324,435 372,421z"
   horiz-adv-x="637"
   unicode="Ş" />
<glyph
   id="glyph360"
   d="M320,577C293,577 271,572 255,562C239,552 231,537 231,518C231,493 243,475 266,462C289,449 324,435 372,421C420,407 460,393 491,379C522,365 548,344 570,316C592,288 603,251 603,205C603,160 591,122 568,90C544,57 511,33 470,16C429,-1 382,-9 329,-9C272,-9 217,1 162,21C107,41 60,68 20,103l63,129C118,200 159,174 205,155C251,136 293,126 331,126C364,126 389,132 408,144C426,156 435,173 435,196C435,214 429,229 417,241C404,252 389,262 370,269C351,276 324,285 291,294C243,307 204,321 174,334C143,347 117,368 95,395C73,422 62,459 62,504C62,546 73,583 96,615C119,646 150,671 191,688C232,705 279,713 333,713C381,713 428,706 475,692C522,678 563,659 599,636l-61,-131C502,527 464,545 424,558C383,571 349,577 320,577M512,759l-122,0l-57,65l-58,-65l-121,0l108,148l141,0z"
   horiz-adv-x="637"
   unicode="Ŝ" />
<glyph
   id="glyph362"
   d="M320,577C293,577 271,572 255,562C239,552 231,537 231,518C231,493 243,475 266,462C289,449 324,435 372,421C420,407 460,393 491,379C522,365 548,344 570,316C592,288 603,251 603,205C603,160 591,122 568,90C544,57 511,33 470,16C429,-1 382,-9 329,-9C272,-9 217,1 162,21C107,41 60,68 20,103l63,129C118,200 159,174 205,155C251,136 293,126 331,126C364,126 389,132 408,144C426,156 435,173 435,196C435,214 429,229 417,241C404,252 389,262 370,269C351,276 324,285 291,294C243,307 204,321 174,334C143,347 117,368 95,395C73,422 62,459 62,504C62,546 73,583 96,615C119,646 150,671 191,688C232,705 279,713 333,713C381,713 428,706 475,692C522,678 563,659 599,636l-61,-131C502,527 464,545 424,558C383,571 349,577 320,577M261,-59l130,0l-68,-170l-95,0z"
   horiz-adv-x="637"
   unicode="Ș" />
<glyph
   id="glyph364"
   d="M320,577C293,577 271,572 255,562C239,552 231,537 231,518C231,493 243,475 266,462C289,449 324,435 372,421C420,407 460,393 491,379C522,365 548,344 570,316C592,288 603,251 603,205C603,160 591,122 568,90C544,57 511,33 470,16C429,-1 382,-9 329,-9C272,-9 217,1 162,21C107,41 60,68 20,103l63,129C118,200 159,174 205,155C251,136 293,126 331,126C364,126 389,132 408,144C426,156 435,173 435,196C435,214 429,229 417,241C404,252 389,262 370,269C351,276 324,285 291,294C243,307 204,321 174,334C143,347 117,368 95,395C73,422 62,459 62,504C62,546 73,583 96,615C119,646 150,671 191,688C232,705 279,713 333,713C381,713 428,706 475,692C522,678 563,659 599,636l-61,-131C502,527 464,545 424,558C383,571 349,577 320,577M417,842C417,817 409,797 394,781C378,764 358,756 333,756C309,756 289,764 274,781C258,797 250,817 250,842C250,867 258,888 274,905C289,921 309,929 333,929C358,929 378,921 394,905C409,888 417,867 417,842z"
   horiz-adv-x="637"
   unicode="Ṡ" />
<glyph
   id="glyph366"
   d="M320,577C293,577 271,572 255,562C239,552 231,537 231,518C231,493 243,475 266,462C289,449 324,435 372,421C420,407 460,393 491,379C522,365 548,344 570,316C592,288 603,251 603,205C603,160 591,122 568,90C544,57 511,33 470,16C429,-1 382,-9 329,-9C272,-9 217,1 162,21C107,41 60,68 20,103l63,129C118,200 159,174 205,155C251,136 293,126 331,126C364,126 389,132 408,144C426,156 435,173 435,196C435,214 429,229 417,241C404,252 389,262 370,269C351,276 324,285 291,294C243,307 204,321 174,334C143,347 117,368 95,395C73,422 62,459 62,504C62,546 73,583 96,615C119,646 150,671 191,688C232,705 279,713 333,713C381,713 428,706 475,692C522,678 563,659 599,636l-61,-131C502,527 464,545 424,558C383,571 349,577 320,577M409,-156C409,-181 401,-202 386,-218C370,-234 350,-242 325,-242C301,-242 281,-234 266,-217C250,-201 242,-181 242,-156C242,-131 250,-110 266,-94C281,-78 301,-70 325,-70C350,-70 370,-78 386,-94C401,-110 409,-131 409,-156z"
   horiz-adv-x="637"
   unicode="Ṣ" />
<glyph
   id="glyph368"
   d="M320,577C293,577 271,572 255,562C239,552 231,537 231,518C231,493 243,475 266,462C289,449 324,435 372,421C420,407 460,393 491,379C522,365 548,344 570,316C592,288 603,251 603,205C603,160 591,122 568,90C544,57 511,33 470,16C429,-1 382,-9 329,-9C272,-9 217,1 162,21C107,41 60,68 20,103l63,129C118,200 159,174 205,155C251,136 293,126 331,126C364,126 389,132 408,144C426,156 435,173 435,196C435,214 429,229 417,241C404,252 389,262 370,269C351,276 324,285 291,294C243,307 204,321 174,334C143,347 117,368 95,395C73,422 62,459 62,504C62,546 73,583 96,615C119,646 150,671 191,688C232,705 279,713 333,713C381,713 428,706 475,692C522,678 563,659 599,636l-61,-131C502,527 464,545 424,558C383,571 349,577 320,577M409,-156C409,-181 401,-202 386,-218C370,-234 350,-242 325,-242C301,-242 281,-234 266,-217C250,-201 242,-181 242,-156C242,-131 250,-110 266,-94C281,-78 301,-70 325,-70C350,-70 370,-78 386,-94C401,-110 409,-131 409,-156M410,842C410,817 402,797 387,781C371,764 351,756 326,756C302,756 282,764 267,781C251,797 243,817 243,842C243,867 251,888 267,905C282,921 302,929 326,929C351,929 371,921 387,905C402,888 410,867 410,842z"
   horiz-adv-x="637"
   unicode="Ṩ" />
<glyph
   id="glyph370"
   d="M672,206C672,143 650,93 605,56C560,19 496,0 414,0l-81,0l0,129l67,0C434,129 461,137 481,152C500,167 510,188 510,215C510,242 500,264 481,279C462,294 435,302 400,302l-35,0l0,108l121,143C458,566 425,573 386,573C333,573 293,558 264,528C235,498 220,456 220,403l0,-403l-158,0l0,395C62,494 90,570 145,625C200,680 277,707 376,707C469,707 549,682 618,633l0,-121l-96,-114C570,385 607,361 633,328C659,295 672,254 672,206z"
   horiz-adv-x="698"
   unicode="ẞ" />
<glyph
   id="glyph372"
   d="M28,387l567,0C590,422 579,454 560,483C541,511 518,533 489,549C460,565 429,573 396,573C360,573 327,565 296,548C265,531 239,507 219,478l-111,112C182,671 277,711 394,711C462,711 524,695 579,664C634,633 677,590 709,535C740,480 756,418 756,351C756,284 740,222 709,167C677,112 633,68 578,37C523,5 461,-11 394,-11C322,-11 258,6 203,39C148,72 105,119 74,180C43,240 28,309 28,387M588,276l-388,0C213,231 237,195 272,168C307,141 348,127 396,127C443,127 483,141 518,168C553,195 576,231 588,276z"
   horiz-adv-x="787"
   unicode="Ə" />
<glyph
   id="glyph374"
   d="M8,700l585,0l0,-134l-214,0l0,-566l-158,0l0,566l-213,0z"
   horiz-adv-x="601"
   unicode="T" />
<glyph
   id="glyph376"
   d="M593,566l-214,0l0,-205l135,0l0,-87l-135,0l0,-274l-158,0l0,274l-137,0l0,87l137,0l0,205l-213,0l0,134l585,0z"
   horiz-adv-x="601"
   unicode="Ŧ" />
<glyph
   id="glyph378"
   d="M8,700l585,0l0,-134l-214,0l0,-566l-158,0l0,566l-213,0M349,906l121,0l-108,-148l-141,0l-109,148l122,0l58,-65z"
   horiz-adv-x="601"
   unicode="Ť" />
<glyph
   id="glyph380"
   d="M355,0l-20,-54C363,-60 384,-70 397,-84C410,-99 417,-116 417,-135C417,-166 405,-189 382,-205C359,-221 329,-229 294,-229C260,-229 225,-222 189,-208l26,75C233,-140 251,-143 269,-143C281,-143 291,-141 299,-136C306,-132 310,-127 310,-121C310,-113 305,-107 296,-102C287,-98 274,-96 258,-96l-27,0l31,96l-41,0l0,566l-213,0l0,134l585,0l0,-134l-214,0l0,-566z"
   horiz-adv-x="601"
   unicode="Ţ" />
<glyph
   id="glyph382"
   d="M8,700l585,0l0,-134l-214,0l0,-566l-158,0l0,566l-213,0M235,-59l130,0l-68,-170l-95,0z"
   horiz-adv-x="601"
   unicode="Ț" />
<glyph
   id="glyph384"
   d="M8,700l585,0l0,-134l-214,0l0,-566l-158,0l0,566l-213,0M383,-156C383,-181 375,-202 360,-218C344,-234 324,-242 299,-242C275,-242 255,-234 240,-217C224,-201 216,-181 216,-156C216,-131 224,-110 240,-94C255,-78 275,-70 299,-70C324,-70 344,-78 360,-94C375,-110 383,-131 383,-156z"
   horiz-adv-x="601"
   unicode="Ṭ" />
<glyph
   id="glyph386"
   d="M8,700l585,0l0,-134l-214,0l0,-566l-158,0l0,566l-213,0M148,-78l303,0l0,-94l-303,0z"
   horiz-adv-x="601"
   unicode="Ṯ" />
<glyph
   id="glyph388"
   d="M379,127C425,127 462,141 489,170C516,199 530,238 530,289l0,411l158,0l0,-411C688,228 676,175 651,130C626,85 590,50 543,26C496,1 441,-11 378,-11C315,-11 259,1 212,26C165,50 128,85 103,130C78,175 65,228 65,289l0,411l158,0l0,-411C223,239 237,200 266,171C294,142 332,127 379,127z"
   horiz-adv-x="753"
   unicode="U" />
<glyph
   id="glyph390"
   d="M379,127C425,127 462,141 489,170C516,199 530,238 530,289l0,411l158,0l0,-411C688,228 676,175 651,130C626,85 590,50 543,26C496,1 441,-11 378,-11C315,-11 259,1 212,26C165,50 128,85 103,130C78,175 65,228 65,289l0,411l158,0l0,-411C223,239 237,200 266,171C294,142 332,127 379,127M412,916l136,-53l-136,-110l-112,10z"
   horiz-adv-x="753"
   unicode="Ú" />
<glyph
   id="glyph392"
   d="M379,127C425,127 462,141 489,170C516,199 530,238 530,289l0,411l158,0l0,-411C688,228 676,175 651,130C626,85 590,50 543,26C496,1 441,-11 378,-11C315,-11 259,1 212,26C165,50 128,85 103,130C78,175 65,228 65,289l0,411l158,0l0,-411C223,239 237,200 266,171C294,142 332,127 379,127M377,850C393,850 406,856 417,867C428,878 434,892 435,910l98,0C531,863 516,826 487,798C458,770 422,756 377,756C332,756 295,770 266,798C237,826 222,863 221,910l98,0C320,892 326,878 337,867C348,856 361,850 377,850z"
   horiz-adv-x="753"
   unicode="Ŭ" />
<glyph
   id="glyph394"
   d="M379,127C425,127 462,141 489,170C516,199 530,238 530,289l0,411l158,0l0,-411C688,228 676,175 651,130C626,85 590,50 543,26C496,1 441,-11 378,-11C315,-11 259,1 212,26C165,50 128,85 103,130C78,175 65,228 65,289l0,411l158,0l0,-411C223,239 237,200 266,171C294,142 332,127 379,127M556,759l-122,0l-57,65l-58,-65l-121,0l108,148l141,0z"
   horiz-adv-x="753"
   unicode="Û" />
<glyph
   id="glyph396"
   d="M379,127C425,127 462,141 489,170C516,199 530,238 530,289l0,411l158,0l0,-411C688,228 676,175 651,130C626,85 590,50 543,26C496,1 441,-11 378,-11C315,-11 259,1 212,26C165,50 128,85 103,130C78,175 65,228 65,289l0,411l158,0l0,-411C223,239 237,200 266,171C294,142 332,127 379,127M273,919l79,-157l-109,-10l-91,120M457,919l80,-157l-109,-10l-91,120z"
   horiz-adv-x="753"
   unicode="Ȕ" />
<glyph
   id="glyph398"
   d="M379,127C425,127 462,141 489,170C516,199 530,238 530,289l0,411l158,0l0,-411C688,228 676,175 651,130C626,85 590,50 543,26C496,1 441,-11 378,-11C315,-11 259,1 212,26C165,50 128,85 103,130C78,175 65,228 65,289l0,411l158,0l0,-411C223,239 237,200 266,171C294,142 332,127 379,127M354,828C354,807 348,790 335,777C322,763 305,756 284,756C263,756 247,763 234,777C221,790 214,807 214,828C214,849 221,867 234,880C247,893 263,900 284,900C305,900 322,893 335,880C348,867 354,849 354,828M541,828C541,807 534,790 521,777C508,763 491,756 471,756C450,756 433,763 420,777C407,790 400,807 400,828C400,849 407,866 420,880C433,893 450,900 471,900C491,900 508,893 521,880C534,866 541,849 541,828z"
   horiz-adv-x="753"
   unicode="Ü" />
<glyph
   id="glyph400"
   d="M379,127C425,127 462,141 489,170C516,199 530,238 530,289l0,411l158,0l0,-411C688,228 676,175 651,130C626,85 590,50 543,26C496,1 441,-11 378,-11C315,-11 259,1 212,26C165,50 128,85 103,130C78,175 65,228 65,289l0,411l158,0l0,-411C223,239 237,200 266,171C294,142 332,127 379,127M460,-156C460,-181 452,-202 437,-218C421,-234 401,-242 376,-242C352,-242 332,-234 317,-217C301,-201 293,-181 293,-156C293,-131 301,-110 317,-94C332,-78 352,-70 376,-70C401,-70 421,-78 437,-94C452,-110 460,-131 460,-156z"
   horiz-adv-x="753"
   unicode="Ụ" />
<glyph
   id="glyph402"
   d="M379,127C425,127 462,141 489,170C516,199 530,238 530,289l0,411l158,0l0,-411C688,228 676,175 651,130C626,85 590,50 543,26C496,1 441,-11 378,-11C315,-11 259,1 212,26C165,50 128,85 103,130C78,175 65,228 65,289l0,411l158,0l0,-411C223,239 237,200 266,171C294,142 332,127 379,127M342,916l104,-153l-112,-10l-128,110z"
   horiz-adv-x="753"
   unicode="Ù" />
<glyph
   id="glyph404"
   d="M379,127C425,127 462,141 489,170C516,199 530,238 530,289l0,411l158,0l0,-411C688,228 676,175 651,130C626,85 590,50 543,26C496,1 441,-11 378,-11C315,-11 259,1 212,26C165,50 128,85 103,130C78,175 65,228 65,289l0,411l158,0l0,-411C223,239 237,200 266,171C294,142 332,127 379,127M489,877C489,855 482,832 467,809C452,785 431,763 406,742l-72,31C347,786 358,799 366,813C373,827 377,840 377,851C377,859 374,865 369,870C364,875 357,877 349,877C337,877 325,873 312,864l-42,68C305,955 342,967 381,967C414,967 440,959 460,943C479,927 489,905 489,877z"
   horiz-adv-x="753"
   unicode="Ủ" />
<glyph
   id="glyph406"
   d="M809,752C809,717 799,689 778,667C757,644 727,629 688,621l0,-332C688,228 676,175 651,130C626,85 590,50 543,26C496,1 441,-11 378,-11C315,-11 259,1 212,26C165,50 128,85 103,130C78,175 65,228 65,289l0,411l158,0l0,-411C223,239 237,200 266,171C294,142 332,127 379,127C425,127 462,141 489,170C516,199 530,238 530,289l0,411l101,0l0,1C652,701 667,706 678,715C688,724 693,737 693,752C693,769 688,786 677,804l111,42C802,811 809,780 809,752z"
   horiz-adv-x="794"
   unicode="Ư" />
<glyph
   id="glyph408"
   d="M809,752C809,717 799,689 778,667C757,644 727,629 688,621l0,-332C688,228 676,175 651,130C626,85 590,50 543,26C496,1 441,-11 378,-11C315,-11 259,1 212,26C165,50 128,85 103,130C78,175 65,228 65,289l0,411l158,0l0,-411C223,239 237,200 266,171C294,142 332,127 379,127C425,127 462,141 489,170C516,199 530,238 530,289l0,411l101,0l0,1C652,701 667,706 678,715C688,724 693,737 693,752C693,769 688,786 677,804l111,42C802,811 809,780 809,752M412,916l136,-53l-136,-110l-112,10z"
   horiz-adv-x="794"
   unicode="Ứ" />
<glyph
   id="glyph410"
   d="M809,752C809,717 799,689 778,667C757,644 727,629 688,621l0,-332C688,228 676,175 651,130C626,85 590,50 543,26C496,1 441,-11 378,-11C315,-11 259,1 212,26C165,50 128,85 103,130C78,175 65,228 65,289l0,411l158,0l0,-411C223,239 237,200 266,171C294,142 332,127 379,127C425,127 462,141 489,170C516,199 530,238 530,289l0,411l101,0l0,1C652,701 667,706 678,715C688,724 693,737 693,752C693,769 688,786 677,804l111,42C802,811 809,780 809,752M459,-156C459,-181 451,-202 436,-218C420,-234 400,-242 375,-242C351,-242 331,-234 316,-217C300,-201 292,-181 292,-156C292,-131 300,-110 316,-94C331,-78 351,-70 375,-70C400,-70 420,-78 436,-94C451,-110 459,-131 459,-156z"
   horiz-adv-x="793"
   unicode="Ự" />
<glyph
   id="glyph412"
   d="M809,752C809,717 799,689 778,667C757,644 727,629 688,621l0,-332C688,228 676,175 651,130C626,85 590,50 543,26C496,1 441,-11 378,-11C315,-11 259,1 212,26C165,50 128,85 103,130C78,175 65,228 65,289l0,411l158,0l0,-411C223,239 237,200 266,171C294,142 332,127 379,127C425,127 462,141 489,170C516,199 530,238 530,289l0,411l101,0l0,1C652,701 667,706 678,715C688,724 693,737 693,752C693,769 688,786 677,804l111,42C802,811 809,780 809,752M342,916l104,-153l-112,-10l-128,110z"
   horiz-adv-x="794"
   unicode="Ừ" />
<glyph
   id="glyph414"
   d="M809,752C809,717 799,689 778,667C757,644 727,629 688,621l0,-332C688,228 676,175 651,130C626,85 590,50 543,26C496,1 441,-11 378,-11C315,-11 259,1 212,26C165,50 128,85 103,130C78,175 65,228 65,289l0,411l158,0l0,-411C223,239 237,200 266,171C294,142 332,127 379,127C425,127 462,141 489,170C516,199 530,238 530,289l0,411l101,0l0,1C652,701 667,706 678,715C688,724 693,737 693,752C693,769 688,786 677,804l111,42C802,811 809,780 809,752M488,877C488,855 481,832 466,809C451,785 430,763 405,742l-72,31C346,786 357,799 365,813C372,827 376,840 376,851C376,859 373,865 368,870C363,875 356,877 348,877C336,877 324,873 311,864l-42,68C304,955 341,967 380,967C413,967 439,959 459,943C478,927 488,905 488,877z"
   horiz-adv-x="794"
   unicode="Ử" />
<glyph
   id="glyph416"
   d="M809,752C809,717 799,689 778,667C757,644 727,629 688,621l0,-332C688,228 676,175 651,130C626,85 590,50 543,26C496,1 441,-11 378,-11C315,-11 259,1 212,26C165,50 128,85 103,130C78,175 65,228 65,289l0,411l158,0l0,-411C223,239 237,200 266,171C294,142 332,127 379,127C425,127 462,141 489,170C516,199 530,238 530,289l0,411l101,0l0,1C652,701 667,706 678,715C688,724 693,737 693,752C693,769 688,786 677,804l111,42C802,811 809,780 809,752M460,755C445,755 431,758 418,763C405,768 389,775 371,784C363,789 355,793 347,796C339,799 332,801 327,801C317,801 310,798 306,791C302,784 300,773 299,758l-91,0C208,806 215,843 230,869C244,895 267,908 300,908C315,908 329,906 342,901C355,896 371,888 389,879C410,867 424,861 433,861C443,861 450,865 454,872C458,879 460,890 461,904l91,0C552,857 545,820 531,794C516,768 493,755 460,755z"
   horiz-adv-x="794"
   unicode="Ữ" />
<glyph
   id="glyph418"
   d="M379,127C425,127 462,141 489,170C516,199 530,238 530,289l0,411l158,0l0,-411C688,228 676,175 651,130C626,85 590,50 543,26C496,1 441,-11 378,-11C315,-11 259,1 212,26C165,50 128,85 103,130C78,175 65,228 65,289l0,411l158,0l0,-411C223,239 237,200 266,171C294,142 332,127 379,127M292,920l121,-47l-91,-120l-110,10M477,920l120,-47l-91,-120l-109,10z"
   horiz-adv-x="753"
   unicode="Ű" />
<glyph
   id="glyph420"
   d="M379,127C425,127 462,141 489,170C516,199 530,238 530,289l0,411l158,0l0,-411C688,228 676,175 651,130C626,85 590,50 543,26C496,1 441,-11 378,-11C315,-11 259,1 212,26C165,50 128,85 103,130C78,175 65,228 65,289l0,411l158,0l0,-411C223,239 237,200 266,171C294,142 332,127 379,127M221,759C222,806 237,843 266,871C295,899 332,913 377,913C422,913 458,899 487,871C516,843 531,806 533,759l-98,0C434,776 428,791 417,802C406,813 393,819 377,819C361,819 348,813 337,802C326,791 320,776 319,759z"
   horiz-adv-x="753"
   unicode="Ȗ" />
<glyph
   id="glyph422"
   d="M379,127C425,127 462,141 489,170C516,199 530,238 530,289l0,411l158,0l0,-411C688,228 676,175 651,130C626,85 590,50 543,26C496,1 441,-11 378,-11C315,-11 259,1 212,26C165,50 128,85 103,130C78,175 65,228 65,289l0,411l158,0l0,-411C223,239 237,200 266,171C294,142 332,127 379,127M211,856l332,0l0,-94l-332,0z"
   horiz-adv-x="753"
   unicode="Ū" />
<glyph
   id="glyph424"
   d="M968,127C1014,127 1051,141 1078,170C1105,199 1119,238 1119,289l0,411l158,0l0,-411C1277,228 1265,175 1240,130C1215,85 1179,50 1132,26C1085,1 1030,-11 967,-11C904,-11 848,1 801,26C754,50 717,85 692,130C667,175 654,228 654,289l0,411l158,0l0,-411C812,239 826,200 855,171C883,142 921,127 968,127M211,851l278,0l0,-90l-278,0M327,963C327,943 321,926 308,913C295,899 278,892 258,892C238,892 222,899 209,913C196,926 189,943 189,963C189,984 196,1001 209,1014C222,1027 238,1034 258,1034C278,1034 295,1027 308,1014C321,1001 327,984 327,963M512,963C512,943 506,926 493,913C480,899 463,892 444,892C424,892 407,899 394,913C381,926 374,943 374,963C374,984 381,1001 394,1014C407,1027 423,1034 444,1034C463,1034 480,1027 493,1014C506,1001 512,984 512,963z"
   horiz-adv-x="753"
   unicode="Ṻ" />
<glyph
   id="glyph426"
   d="M688,700l0,-411C688,236 679,188 660,147C641,106 613,72 577,46C554,23 535,-1 521,-27C506,-54 499,-77 499,-96C499,-117 507,-127 523,-127C534,-127 544,-124 553,-119l28,-88C549,-221 519,-228 490,-228C457,-228 430,-219 410,-200C389,-182 379,-156 379,-121C379,-82 394,-44 425,-9C405,-10 389,-11 378,-11C315,-11 259,1 212,26C165,50 128,85 103,130C78,175 65,228 65,289l0,411l158,0l0,-411C223,239 237,200 266,171C294,142 332,127 379,127C425,127 462,141 489,170C516,199 530,238 530,289l0,411z"
   horiz-adv-x="753"
   unicode="Ų" />
<glyph
   id="glyph428"
   d="M379,127C425,127 462,141 489,170C516,199 530,238 530,289l0,411l158,0l0,-411C688,228 676,175 651,130C626,85 590,50 543,26C496,1 441,-11 378,-11C315,-11 259,1 212,26C165,50 128,85 103,130C78,175 65,228 65,289l0,411l158,0l0,-411C223,239 237,200 266,171C294,142 332,127 379,127M493,857C493,825 482,798 459,775C436,752 409,741 377,741C345,741 318,752 295,775C272,798 261,825 261,857C261,888 272,915 295,938C318,961 345,972 377,972C409,972 436,961 459,938C482,915 493,888 493,857M330,857C330,844 335,834 344,825C353,816 364,811 377,811C390,811 402,816 411,825C420,834 424,844 424,857C424,870 420,880 411,889C402,898 390,902 377,902C364,902 353,898 344,889C335,880 330,870 330,857z"
   horiz-adv-x="753"
   unicode="Ů" />
<glyph
   id="glyph430"
   d="M379,127C425,127 462,141 489,170C516,199 530,238 530,289l0,411l158,0l0,-411C688,228 676,175 651,130C626,85 590,50 543,26C496,1 441,-11 378,-11C315,-11 259,1 212,26C165,50 128,85 103,130C78,175 65,228 65,289l0,411l158,0l0,-411C223,239 237,200 266,171C294,142 332,127 379,127M460,755C445,755 431,758 418,763C405,768 389,775 371,784C363,789 355,793 347,796C339,799 332,801 327,801C317,801 310,798 306,791C302,784 300,773 299,758l-91,0C208,806 215,843 230,869C244,895 267,908 300,908C315,908 329,906 342,901C355,896 371,888 389,879C410,867 424,861 433,861C443,861 450,865 454,872C458,879 460,890 461,904l91,0C552,857 545,820 531,794C516,768 493,755 460,755z"
   horiz-adv-x="753"
   unicode="Ũ" />
<glyph
   id="glyph432"
   d="M379,127C425,127 462,141 489,170C516,199 530,238 530,289l0,411l158,0l0,-411C688,228 676,175 651,130C626,85 590,50 543,26C496,1 441,-11 378,-11C315,-11 259,1 212,26C165,50 128,85 103,130C78,175 65,228 65,289l0,411l158,0l0,-411C223,239 237,200 266,171C294,142 332,127 379,127M457,757C441,757 426,759 412,764C398,769 382,775 363,784C361,785 354,788 343,793C331,798 321,800 314,800C303,800 295,797 290,790C285,783 283,773 283,760l-76,0C207,801 214,832 228,855C242,877 265,888 297,888C313,888 329,886 344,881C359,876 375,870 393,861C416,850 432,845 441,845C452,845 459,848 464,855C469,862 471,872 471,885l77,0C548,844 541,812 527,790C512,768 489,757 457,757M424,1075l112,-70l-150,-82l-98,27z"
   horiz-adv-x="753"
   unicode="Ṹ" />
<glyph
   id="glyph434"
   d="M0,700l170,0l191,-528l192,528l163,0l-278,-700l-163,0z"
   horiz-adv-x="716"
   unicode="V" />
<glyph
   id="glyph436"
   d="M931,700l163,0l-237,-700l-163,0l-147,505l-149,-505l-162,0l-236,700l170,0l152,-534l151,534l155,0l153,-534z"
   horiz-adv-x="1094"
   unicode="W" />
<glyph
   id="glyph438"
   d="M931,700l163,0l-237,-700l-163,0l-147,505l-149,-505l-162,0l-236,700l170,0l152,-534l151,534l155,0l153,-534M583,916l136,-53l-136,-110l-112,10z"
   horiz-adv-x="1094"
   unicode="Ẃ" />
<glyph
   id="glyph440"
   d="M931,700l163,0l-237,-700l-163,0l-147,505l-149,-505l-162,0l-236,700l170,0l152,-534l151,534l155,0l153,-534M727,759l-122,0l-57,65l-58,-65l-121,0l108,148l141,0z"
   horiz-adv-x="1094"
   unicode="Ŵ" />
<glyph
   id="glyph442"
   d="M931,700l163,0l-237,-700l-163,0l-147,505l-149,-505l-162,0l-236,700l170,0l152,-534l151,534l155,0l153,-534M525,828C525,807 519,790 506,777C493,763 476,756 455,756C434,756 418,763 405,777C392,790 385,807 385,828C385,849 392,867 405,880C418,893 434,900 455,900C476,900 493,893 506,880C519,867 525,849 525,828M712,828C712,807 705,790 692,777C679,763 662,756 642,756C621,756 604,763 591,777C578,790 571,807 571,828C571,849 578,866 591,880C604,893 621,900 642,900C662,900 679,893 692,880C705,866 712,849 712,828z"
   horiz-adv-x="1094"
   unicode="Ẅ" />
<glyph
   id="glyph444"
   d="M931,700l163,0l-237,-700l-163,0l-147,505l-149,-505l-162,0l-236,700l170,0l152,-534l151,534l155,0l153,-534M513,916l104,-153l-112,-10l-128,110z"
   horiz-adv-x="1094"
   unicode="Ẁ" />
<glyph
   id="glyph446"
   d="M25,700l184,0l146,-214l147,214l187,0l-233,-335l253,-365l-189,0l-165,233l-162,-233l-185,0l251,358z"
   horiz-adv-x="721"
   unicode="X" />
<glyph
   id="glyph448"
   d="M669,700l-255,-474l0,-226l-158,0l0,222l-259,478l159,0l179,-314l175,314z"
   horiz-adv-x="666"
   unicode="Y" />
<glyph
   id="glyph450"
   d="M669,700l-255,-474l0,-226l-158,0l0,222l-259,478l159,0l179,-314l175,314M368,916l136,-53l-136,-110l-112,10z"
   horiz-adv-x="666"
   unicode="Ý" />
<glyph
   id="glyph452"
   d="M669,700l-255,-474l0,-226l-158,0l0,222l-259,478l159,0l179,-314l175,314M512,759l-122,0l-57,65l-58,-65l-121,0l108,148l141,0z"
   horiz-adv-x="666"
   unicode="Ŷ" />
<glyph
   id="glyph454"
   d="M669,700l-255,-474l0,-226l-158,0l0,222l-259,478l159,0l179,-314l175,314M310,828C310,807 304,790 291,777C278,763 261,756 240,756C219,756 203,763 190,777C177,790 170,807 170,828C170,849 177,867 190,880C203,893 219,900 240,900C261,900 278,893 291,880C304,867 310,849 310,828M497,828C497,807 490,790 477,777C464,763 447,756 427,756C406,756 389,763 376,777C363,790 356,807 356,828C356,849 363,866 376,880C389,893 406,900 427,900C447,900 464,893 477,880C490,866 497,849 497,828z"
   horiz-adv-x="666"
   unicode="Ÿ" />
<glyph
   id="glyph456"
   d="M669,700l-255,-474l0,-226l-158,0l0,222l-259,478l159,0l179,-314l175,314M417,842C417,817 409,797 394,781C378,764 358,756 333,756C309,756 289,764 274,781C258,797 250,817 250,842C250,867 258,888 274,905C289,921 309,929 333,929C358,929 378,921 394,905C409,888 417,867 417,842z"
   horiz-adv-x="666"
   unicode="Ẏ" />
<glyph
   id="glyph458"
   d="M669,700l-255,-474l0,-226l-158,0l0,222l-259,478l159,0l179,-314l175,314M418,-156C418,-181 410,-202 395,-218C379,-234 359,-242 334,-242C310,-242 290,-234 275,-217C259,-201 251,-181 251,-156C251,-131 259,-110 275,-94C290,-78 310,-70 334,-70C359,-70 379,-78 395,-94C410,-110 418,-131 418,-156z"
   horiz-adv-x="666"
   unicode="Ỵ" />
<glyph
   id="glyph460"
   d="M669,700l-255,-474l0,-226l-158,0l0,222l-259,478l159,0l179,-314l175,314M298,916l104,-153l-112,-10l-128,110z"
   horiz-adv-x="666"
   unicode="Ỳ" />
<glyph
   id="glyph462"
   d="M669,700l-255,-474l0,-226l-158,0l0,222l-259,478l159,0l179,-314l175,314M445,877C445,855 438,832 423,809C408,785 387,763 362,742l-72,31C303,786 314,799 322,813C329,827 333,840 333,851C333,859 330,865 325,870C320,875 313,877 305,877C293,877 281,873 268,864l-42,68C261,955 298,967 337,967C370,967 396,959 416,943C435,927 445,905 445,877z"
   horiz-adv-x="666"
   unicode="Ỷ" />
<glyph
   id="glyph464"
   d="M669,700l-255,-474l0,-226l-158,0l0,222l-259,478l159,0l179,-314l175,314M167,856l332,0l0,-94l-332,0z"
   horiz-adv-x="666"
   unicode="Ȳ" />
<glyph
   id="glyph466"
   d="M669,700l-255,-474l0,-226l-158,0l0,222l-259,478l159,0l179,-314l175,314M416,755C401,755 387,758 374,763C361,768 345,775 327,784C319,789 311,793 303,796C295,799 288,801 283,801C273,801 266,798 262,791C258,784 256,773 255,758l-91,0C164,806 171,843 186,869C200,895 223,908 256,908C271,908 285,906 298,901C311,896 327,888 345,879C366,867 380,861 389,861C399,861 406,865 410,872C414,879 416,890 417,904l91,0C508,857 501,820 487,794C472,768 449,755 416,755z"
   horiz-adv-x="666"
   unicode="Ỹ" />
<glyph
   id="glyph468"
   d="M44,700l591,0l0,-106l-391,-462l397,0l-1,-132l-609,0l0,107l392,461l-379,0z"
   horiz-adv-x="672"
   unicode="Z" />
<glyph
   id="glyph470"
   d="M44,700l591,0l0,-106l-391,-462l397,0l-1,-132l-609,0l0,107l392,461l-379,0M374,916l136,-53l-136,-110l-112,10z"
   horiz-adv-x="672"
   unicode="Ź" />
<glyph
   id="glyph472"
   d="M44,700l591,0l0,-106l-391,-462l397,0l-1,-132l-609,0l0,107l392,461l-379,0M377,906l121,0l-108,-148l-141,0l-109,148l122,0l58,-65z"
   horiz-adv-x="672"
   unicode="Ž" />
<glyph
   id="glyph474"
   d="M44,700l591,0l0,-106l-391,-462l397,0l-1,-132l-609,0l0,107l392,461l-379,0M423,842C423,817 415,797 400,781C384,764 364,756 339,756C315,756 295,764 280,781C264,797 256,817 256,842C256,867 264,888 280,905C295,921 315,929 339,929C364,929 384,921 400,905C415,888 423,867 423,842z"
   horiz-adv-x="672"
   unicode="Ż" />
<glyph
   id="glyph476"
   d="M44,700l591,0l0,-106l-391,-462l397,0l-1,-132l-609,0l0,107l392,461l-379,0M419,-156C419,-181 411,-202 396,-218C380,-234 360,-242 335,-242C311,-242 291,-234 276,-217C260,-201 252,-181 252,-156C252,-131 260,-110 276,-94C291,-78 311,-70 335,-70C360,-70 380,-78 396,-94C411,-110 419,-131 419,-156z"
   horiz-adv-x="672"
   unicode="Ẓ" />
<glyph
   id="glyph478"
   d="M386,0l0,63C368,40 345,23 316,11C287,-1 254,-7 217,-7C160,-7 115,9 82,40C49,71 32,111 32,161C32,212 50,251 86,280C121,308 172,322 237,323l148,0l0,10C385,362 376,384 357,400C338,415 310,423 273,423C223,423 170,407 113,376l-48,106C108,503 148,519 185,529C222,539 263,544 308,544C380,544 436,527 476,493C515,459 535,412 536,351l1,-351M385,184l0,48l-121,0C234,232 212,227 198,218C183,208 176,192 176,171C176,150 184,134 199,122C214,109 234,103 260,103C292,103 320,111 343,126C366,141 380,161 385,184z"
   horiz-adv-x="596"
   unicode="a" />
<glyph
   id="glyph480"
   d="M386,0l0,63C368,40 345,23 316,11C287,-1 254,-7 217,-7C160,-7 115,9 82,40C49,71 32,111 32,161C32,212 50,251 86,280C121,308 172,322 237,323l148,0l0,10C385,362 376,384 357,400C338,415 310,423 273,423C223,423 170,407 113,376l-48,106C108,503 148,519 185,529C222,539 263,544 308,544C380,544 436,527 476,493C515,459 535,412 536,351l1,-351M385,184l0,48l-121,0C234,232 212,227 198,218C183,208 176,192 176,171C176,150 184,134 199,122C214,109 234,103 260,103C292,103 320,111 343,126C366,141 380,161 385,184M330,765l136,-53l-136,-110l-112,10z"
   horiz-adv-x="596"
   unicode="á" />
<glyph
   id="glyph482"
   d="M386,0l0,63C368,40 345,23 316,11C287,-1 254,-7 217,-7C160,-7 115,9 82,40C49,71 32,111 32,161C32,212 50,251 86,280C121,308 172,322 237,323l148,0l0,10C385,362 376,384 357,400C338,415 310,423 273,423C223,423 170,407 113,376l-48,106C108,503 148,519 185,529C222,539 263,544 308,544C380,544 436,527 476,493C515,459 535,412 536,351l1,-351M385,184l0,48l-121,0C234,232 212,227 198,218C183,208 176,192 176,171C176,150 184,134 199,122C214,109 234,103 260,103C292,103 320,111 343,126C366,141 380,161 385,184M296,697C312,697 325,703 336,714C347,725 353,739 354,757l98,0C450,710 435,673 406,645C377,617 341,603 296,603C251,603 214,617 185,645C156,673 141,710 140,757l98,0C239,739 245,725 256,714C267,703 280,697 296,697z"
   horiz-adv-x="596"
   unicode="ă" />
<glyph
   id="glyph484"
   d="M386,0l0,63C368,40 345,23 316,11C287,-1 254,-7 217,-7C160,-7 115,9 82,40C49,71 32,111 32,161C32,212 50,251 86,280C121,308 172,322 237,323l148,0l0,10C385,362 376,384 357,400C338,415 310,423 273,423C223,423 170,407 113,376l-48,106C108,503 148,519 185,529C222,539 263,544 308,544C380,544 436,527 476,493C515,459 535,412 536,351l1,-351M385,184l0,48l-121,0C234,232 212,227 198,218C183,208 176,192 176,171C176,150 184,134 199,122C214,109 234,103 260,103C292,103 320,111 343,126C366,141 380,161 385,184M296,690C313,690 327,695 338,704C349,713 356,724 357,738l97,0C452,697 437,664 408,639C379,614 341,602 296,602C250,602 213,614 184,639C155,664 140,697 138,738l97,0C236,724 243,713 254,704C265,695 279,690 296,690M342,900l112,-70l-150,-82l-98,27z"
   horiz-adv-x="596"
   unicode="ắ" />
<glyph
   id="glyph486"
   d="M386,0l0,63C368,40 345,23 316,11C287,-1 254,-7 217,-7C160,-7 115,9 82,40C49,71 32,111 32,161C32,212 50,251 86,280C121,308 172,322 237,323l148,0l0,10C385,362 376,384 357,400C338,415 310,423 273,423C223,423 170,407 113,376l-48,106C108,503 148,519 185,529C222,539 263,544 308,544C380,544 436,527 476,493C515,459 535,412 536,351l1,-351M385,184l0,48l-121,0C234,232 212,227 198,218C183,208 176,192 176,171C176,150 184,134 199,122C214,109 234,103 260,103C292,103 320,111 343,126C366,141 380,161 385,184M368,-156C368,-181 360,-202 345,-218C329,-234 309,-242 284,-242C260,-242 240,-234 225,-217C209,-201 201,-181 201,-156C201,-131 209,-110 225,-94C240,-78 260,-70 284,-70C309,-70 329,-78 345,-94C360,-110 368,-131 368,-156M285,697C301,697 314,703 325,714C336,725 342,739 343,757l98,0C439,710 424,673 395,645C366,617 330,603 285,603C240,603 203,617 174,645C145,673 130,710 129,757l98,0C228,739 234,725 245,714C256,703 269,697 285,697z"
   horiz-adv-x="596"
   unicode="ặ" />
<glyph
   id="glyph488"
   d="M386,0l0,63C368,40 345,23 316,11C287,-1 254,-7 217,-7C160,-7 115,9 82,40C49,71 32,111 32,161C32,212 50,251 86,280C121,308 172,322 237,323l148,0l0,10C385,362 376,384 357,400C338,415 310,423 273,423C223,423 170,407 113,376l-48,106C108,503 148,519 185,529C222,539 263,544 308,544C380,544 436,527 476,493C515,459 535,412 536,351l1,-351M385,184l0,48l-121,0C234,232 212,227 198,218C183,208 176,192 176,171C176,150 184,134 199,122C214,109 234,103 260,103C292,103 320,111 343,126C366,141 380,161 385,184M296,690C313,690 327,695 338,704C349,713 356,724 357,738l97,0C452,697 437,664 408,639C379,614 341,602 296,602C250,602 213,614 184,639C155,664 140,697 138,738l97,0C236,724 243,713 254,704C265,695 279,690 296,690M238,900l135,-125l-97,-27l-151,82z"
   horiz-adv-x="596"
   unicode="ằ" />
<glyph
   id="glyph490"
   d="M386,0l0,63C368,40 345,23 316,11C287,-1 254,-7 217,-7C160,-7 115,9 82,40C49,71 32,111 32,161C32,212 50,251 86,280C121,308 172,322 237,323l148,0l0,10C385,362 376,384 357,400C338,415 310,423 273,423C223,423 170,407 113,376l-48,106C108,503 148,519 185,529C222,539 263,544 308,544C380,544 436,527 476,493C515,459 535,412 536,351l1,-351M385,184l0,48l-121,0C234,232 212,227 198,218C183,208 176,192 176,171C176,150 184,134 199,122C214,109 234,103 260,103C292,103 320,111 343,126C366,141 380,161 385,184M296,690C313,690 327,695 338,704C349,713 356,724 357,738l97,0C452,697 437,664 408,639C379,614 341,602 296,602C250,602 213,614 184,639C155,664 140,697 138,738l97,0C236,724 243,713 254,704C265,695 279,690 296,690M383,848C383,813 359,780 312,747l-66,26C270,790 282,806 282,821C282,827 280,832 276,835C272,838 267,839 260,839C249,839 239,836 230,829l-40,58C223,908 257,918 291,918C320,918 342,911 359,898C375,885 383,868 383,848z"
   horiz-adv-x="596"
   unicode="ẳ" />
<glyph
   id="glyph492"
   d="M386,0l0,63C368,40 345,23 316,11C287,-1 254,-7 217,-7C160,-7 115,9 82,40C49,71 32,111 32,161C32,212 50,251 86,280C121,308 172,322 237,323l148,0l0,10C385,362 376,384 357,400C338,415 310,423 273,423C223,423 170,407 113,376l-48,106C108,503 148,519 185,529C222,539 263,544 308,544C380,544 436,527 476,493C515,459 535,412 536,351l1,-351M385,184l0,48l-121,0C234,232 212,227 198,218C183,208 176,192 176,171C176,150 184,134 199,122C214,109 234,103 260,103C292,103 320,111 343,126C366,141 380,161 385,184M293,690C310,690 324,695 335,704C346,713 353,724 354,738l97,0C449,697 434,664 405,639C376,614 338,602 293,602C247,602 210,614 181,639C152,664 137,697 135,738l97,0C233,724 240,713 251,704C262,695 276,690 293,690M375,779C359,779 344,781 330,786C316,791 300,797 281,806C279,807 272,810 261,815C249,820 239,822 232,822C221,822 213,819 208,812C203,805 201,795 201,782l-76,0C125,823 132,854 146,877C160,899 183,910 215,910C231,910 247,908 262,903C277,898 293,892 311,883C334,872 350,867 359,867C370,867 377,870 382,877C387,884 389,894 389,907l77,0C466,866 459,834 445,812C430,790 407,779 375,779z"
   horiz-adv-x="596"
   unicode="ẵ" />
<glyph
   id="glyph494"
   d="M386,0l0,63C368,40 345,23 316,11C287,-1 254,-7 217,-7C160,-7 115,9 82,40C49,71 32,111 32,161C32,212 50,251 86,280C121,308 172,322 237,323l148,0l0,10C385,362 376,384 357,400C338,415 310,423 273,423C223,423 170,407 113,376l-48,106C108,503 148,519 185,529C222,539 263,544 308,544C380,544 436,527 476,493C515,459 535,412 536,351l1,-351M385,184l0,48l-121,0C234,232 212,227 198,218C183,208 176,192 176,171C176,150 184,134 199,122C214,109 234,103 260,103C292,103 320,111 343,126C366,141 380,161 385,184M475,612l-122,0l-57,65l-58,-65l-121,0l108,148l141,0z"
   horiz-adv-x="596"
   unicode="â" />
<glyph
   id="glyph496"
   d="M386,0l0,63C368,40 345,23 316,11C287,-1 254,-7 217,-7C160,-7 115,9 82,40C49,71 32,111 32,161C32,212 50,251 86,280C121,308 172,322 237,323l148,0l0,10C385,362 376,384 357,400C338,415 310,423 273,423C223,423 170,407 113,376l-48,106C108,503 148,519 185,529C222,539 263,544 308,544C380,544 436,527 476,493C515,459 535,412 536,351l1,-351M385,184l0,48l-121,0C234,232 212,227 198,218C183,208 176,192 176,171C176,150 184,134 199,122C214,109 234,103 260,103C292,103 320,111 343,126C366,141 380,161 385,184M494,602l-134,0l-64,57l-65,-57l-134,0l111,115l174,0M341,899l112,-70l-150,-82l-98,27z"
   horiz-adv-x="596"
   unicode="ấ" />
<glyph
   id="glyph498"
   d="M386,0l0,63C368,40 345,23 316,11C287,-1 254,-7 217,-7C160,-7 115,9 82,40C49,71 32,111 32,161C32,212 50,251 86,280C121,308 172,322 237,323l148,0l0,10C385,362 376,384 357,400C338,415 310,423 273,423C223,423 170,407 113,376l-48,106C108,503 148,519 185,529C222,539 263,544 308,544C380,544 436,527 476,493C515,459 535,412 536,351l1,-351M385,184l0,48l-121,0C234,232 212,227 198,218C183,208 176,192 176,171C176,150 184,134 199,122C214,109 234,103 260,103C292,103 320,111 343,126C366,141 380,161 385,184M368,-156C368,-181 360,-202 345,-218C329,-234 309,-242 284,-242C260,-242 240,-234 225,-217C209,-201 201,-181 201,-156C201,-131 209,-110 225,-94C240,-78 260,-70 284,-70C309,-70 329,-78 345,-94C360,-110 368,-131 368,-156M464,612l-122,0l-57,65l-58,-65l-121,0l108,148l141,0z"
   horiz-adv-x="596"
   unicode="ậ" />
<glyph
   id="glyph500"
   d="M386,0l0,63C368,40 345,23 316,11C287,-1 254,-7 217,-7C160,-7 115,9 82,40C49,71 32,111 32,161C32,212 50,251 86,280C121,308 172,322 237,323l148,0l0,10C385,362 376,384 357,400C338,415 310,423 273,423C223,423 170,407 113,376l-48,106C108,503 148,519 185,529C222,539 263,544 308,544C380,544 436,527 476,493C515,459 535,412 536,351l1,-351M385,184l0,48l-121,0C234,232 212,227 198,218C183,208 176,192 176,171C176,150 184,134 199,122C214,109 234,103 260,103C292,103 320,111 343,126C366,141 380,161 385,184M494,602l-134,0l-64,57l-65,-57l-134,0l111,115l174,0M238,899l135,-125l-97,-27l-151,82z"
   horiz-adv-x="596"
   unicode="ầ" />
<glyph
   id="glyph502"
   d="M386,0l0,63C368,40 345,23 316,11C287,-1 254,-7 217,-7C160,-7 115,9 82,40C49,71 32,111 32,161C32,212 50,251 86,280C121,308 172,322 237,323l148,0l0,10C385,362 376,384 357,400C338,415 310,423 273,423C223,423 170,407 113,376l-48,106C108,503 148,519 185,529C222,539 263,544 308,544C380,544 436,527 476,493C515,459 535,412 536,351l1,-351M385,184l0,48l-121,0C234,232 212,227 198,218C183,208 176,192 176,171C176,150 184,134 199,122C214,109 234,103 260,103C292,103 320,111 343,126C366,141 380,161 385,184M494,602l-134,0l-64,57l-65,-57l-134,0l111,115l174,0M382,847C382,812 358,779 311,746l-66,26C269,789 281,805 281,820C281,826 279,831 275,834C271,837 266,838 259,838C248,838 238,835 229,828l-40,58C222,907 256,917 290,917C319,917 341,910 358,897C374,884 382,867 382,847z"
   horiz-adv-x="596"
   unicode="ẩ" />
<glyph
   id="glyph504"
   d="M386,0l0,63C368,40 345,23 316,11C287,-1 254,-7 217,-7C160,-7 115,9 82,40C49,71 32,111 32,161C32,212 50,251 86,280C121,308 172,322 237,323l148,0l0,10C385,362 376,384 357,400C338,415 310,423 273,423C223,423 170,407 113,376l-48,106C108,503 148,519 185,529C222,539 263,544 308,544C380,544 436,527 476,493C515,459 535,412 536,351l1,-351M385,184l0,48l-121,0C234,232 212,227 198,218C183,208 176,192 176,171C176,150 184,134 199,122C214,109 234,103 260,103C292,103 320,111 343,126C366,141 380,161 385,184M494,602l-134,0l-64,57l-65,-57l-134,0l111,115l174,0M375,751C359,751 344,753 330,758C316,763 300,769 281,778C279,779 272,782 261,787C249,792 239,794 232,794C221,794 213,791 208,784C203,777 201,767 201,754l-76,0C125,795 132,826 146,849C160,871 183,882 215,882C231,882 247,880 262,875C277,870 293,864 311,855C334,844 350,839 359,839C370,839 377,842 382,849C387,856 389,866 389,879l77,0C466,838 459,806 445,784C430,762 407,751 375,751z"
   horiz-adv-x="596"
   unicode="ẫ" />
<glyph
   id="glyph506"
   d="M386,0l0,63C368,40 345,23 316,11C287,-1 254,-7 217,-7C160,-7 115,9 82,40C49,71 32,111 32,161C32,212 50,251 86,280C121,308 172,322 237,323l148,0l0,10C385,362 376,384 357,400C338,415 310,423 273,423C223,423 170,407 113,376l-48,106C108,503 148,519 185,529C222,539 263,544 308,544C380,544 436,527 476,493C515,459 535,412 536,351l1,-351M385,184l0,48l-121,0C234,232 212,227 198,218C183,208 176,192 176,171C176,150 184,134 199,122C214,109 234,103 260,103C292,103 320,111 343,126C366,141 380,161 385,184M192,769l79,-157l-109,-10l-91,120M376,769l80,-157l-109,-10l-91,120z"
   horiz-adv-x="596"
   unicode="ȁ" />
<glyph
   id="glyph508"
   d="M386,0l0,63C368,40 345,23 316,11C287,-1 254,-7 217,-7C160,-7 115,9 82,40C49,71 32,111 32,161C32,212 50,251 86,280C121,308 172,322 237,323l148,0l0,10C385,362 376,384 357,400C338,415 310,423 273,423C223,423 170,407 113,376l-48,106C108,503 148,519 185,529C222,539 263,544 308,544C380,544 436,527 476,493C515,459 535,412 536,351l1,-351M385,184l0,48l-121,0C234,232 212,227 198,218C183,208 176,192 176,171C176,150 184,134 199,122C214,109 234,103 260,103C292,103 320,111 343,126C366,141 380,161 385,184M273,686C273,665 266,648 253,635C240,622 223,615 203,615C182,615 166,622 153,635C140,648 133,665 133,686C133,707 140,725 153,738C166,751 182,758 203,758C223,758 240,751 253,738C266,724 273,707 273,686M459,686C459,665 453,648 440,635C427,622 410,615 389,615C369,615 352,622 339,635C326,648 319,665 319,686C319,707 326,724 339,738C352,751 369,758 389,758C410,758 427,751 440,738C453,725 459,707 459,686z"
   horiz-adv-x="596"
   unicode="ä" />
<glyph
   id="glyph510"
   d="M386,0l0,63C368,40 345,23 316,11C287,-1 254,-7 217,-7C160,-7 115,9 82,40C49,71 32,111 32,161C32,212 50,251 86,280C121,308 172,322 237,323l148,0l0,10C385,362 376,384 357,400C338,415 310,423 273,423C223,423 170,407 113,376l-48,106C108,503 148,519 185,529C222,539 263,544 308,544C380,544 436,527 476,493C515,459 535,412 536,351l1,-351M385,184l0,48l-121,0C234,232 212,227 198,218C183,208 176,192 176,171C176,150 184,134 199,122C214,109 234,103 260,103C292,103 320,111 343,126C366,141 380,161 385,184M368,-156C368,-181 360,-202 345,-218C329,-234 309,-242 284,-242C260,-242 240,-234 225,-217C209,-201 201,-181 201,-156C201,-131 209,-110 225,-94C240,-78 260,-70 284,-70C309,-70 329,-78 345,-94C360,-110 368,-131 368,-156z"
   horiz-adv-x="596"
   unicode="ạ" />
<glyph
   id="glyph512"
   d="M386,0l0,63C368,40 345,23 316,11C287,-1 254,-7 217,-7C160,-7 115,9 82,40C49,71 32,111 32,161C32,212 50,251 86,280C121,308 172,322 237,323l148,0l0,10C385,362 376,384 357,400C338,415 310,423 273,423C223,423 170,407 113,376l-48,106C108,503 148,519 185,529C222,539 263,544 308,544C380,544 436,527 476,493C515,459 535,412 536,351l1,-351M385,184l0,48l-121,0C234,232 212,227 198,218C183,208 176,192 176,171C176,150 184,134 199,122C214,109 234,103 260,103C292,103 320,111 343,126C366,141 380,161 385,184M261,765l104,-153l-112,-10l-128,110z"
   horiz-adv-x="596"
   unicode="à" />
<glyph
   id="glyph514"
   d="M386,0l0,63C368,40 345,23 316,11C287,-1 254,-7 217,-7C160,-7 115,9 82,40C49,71 32,111 32,161C32,212 50,251 86,280C121,308 172,322 237,323l148,0l0,10C385,362 376,384 357,400C338,415 310,423 273,423C223,423 170,407 113,376l-48,106C108,503 148,519 185,529C222,539 263,544 308,544C380,544 436,527 476,493C515,459 535,412 536,351l1,-351M385,184l0,48l-121,0C234,232 212,227 198,218C183,208 176,192 176,171C176,150 184,134 199,122C214,109 234,103 260,103C292,103 320,111 343,126C366,141 380,161 385,184M408,716C408,694 401,671 386,648C371,624 350,602 325,581l-72,31C266,625 277,638 285,652C292,666 296,679 296,690C296,698 293,704 288,709C283,714 276,716 268,716C256,716 244,712 231,703l-42,68C224,794 261,806 300,806C333,806 359,798 379,782C398,766 408,744 408,716z"
   horiz-adv-x="596"
   unicode="ả" />
<glyph
   id="glyph516"
   d="M386,0l0,63C368,40 345,23 316,11C287,-1 254,-7 217,-7C160,-7 115,9 82,40C49,71 32,111 32,161C32,212 50,251 86,280C121,308 172,322 237,323l148,0l0,10C385,362 376,384 357,400C338,415 310,423 273,423C223,423 170,407 113,376l-48,106C108,503 148,519 185,529C222,539 263,544 308,544C380,544 436,527 476,493C515,459 535,412 536,351l1,-351M385,184l0,48l-121,0C234,232 212,227 198,218C183,208 176,192 176,171C176,150 184,134 199,122C214,109 234,103 260,103C292,103 320,111 343,126C366,141 380,161 385,184M140,603C141,650 156,687 185,715C214,743 251,757 296,757C341,757 377,743 406,715C435,687 450,650 452,603l-98,0C353,620 347,635 336,646C325,657 312,663 296,663C280,663 267,657 256,646C245,635 239,620 238,603z"
   horiz-adv-x="596"
   unicode="ȃ" />
<glyph
   id="glyph518"
   d="M386,0l0,63C368,40 345,23 316,11C287,-1 254,-7 217,-7C160,-7 115,9 82,40C49,71 32,111 32,161C32,212 50,251 86,280C121,308 172,322 237,323l148,0l0,10C385,362 376,384 357,400C338,415 310,423 273,423C223,423 170,407 113,376l-48,106C108,503 148,519 185,529C222,539 263,544 308,544C380,544 436,527 476,493C515,459 535,412 536,351l1,-351M385,184l0,48l-121,0C234,232 212,227 198,218C183,208 176,192 176,171C176,150 184,134 199,122C214,109 234,103 260,103C292,103 320,111 343,126C366,141 380,161 385,184M144,735l303,0l0,-94l-303,0z"
   horiz-adv-x="596"
   unicode="ā" />
<glyph
   id="glyph520"
   d="M490,-119l29,-88C487,-221 456,-228 426,-228C392,-228 365,-219 346,-201C326,-183 316,-158 316,-127C316,-79 339,-34 386,8l0,55C368,40 345,23 316,11C287,-1 254,-7 217,-7C160,-7 115,9 82,40C49,71 32,111 32,161C32,212 50,251 86,280C121,308 172,322 237,323l148,0l0,10C385,362 376,384 357,400C338,415 310,423 273,423C223,423 170,407 113,376l-48,106C108,503 148,519 185,529C222,539 263,544 308,544C380,544 436,527 476,493C515,459 535,412 536,351l1,-351l-20,0C489,-20 469,-38 456,-53C443,-69 436,-85 436,-100C436,-118 444,-127 460,-127C471,-127 481,-124 490,-119M385,184l0,48l-121,0C234,232 212,227 198,218C183,208 176,192 176,171C176,150 184,134 199,122C214,109 234,103 260,103C292,103 320,111 343,126C366,141 380,161 385,184z"
   horiz-adv-x="596"
   unicode="ą" />
<glyph
   id="glyph522"
   d="M386,0l0,63C368,40 345,23 316,11C287,-1 254,-7 217,-7C160,-7 115,9 82,40C49,71 32,111 32,161C32,212 50,251 86,280C121,308 172,322 237,323l148,0l0,10C385,362 376,384 357,400C338,415 310,423 273,423C223,423 170,407 113,376l-48,106C108,503 148,519 185,529C222,539 263,544 308,544C380,544 436,527 476,493C515,459 535,412 536,351l1,-351M385,184l0,48l-121,0C234,232 212,227 198,218C183,208 176,192 176,171C176,150 184,134 199,122C214,109 234,103 260,103C292,103 320,111 343,126C366,141 380,161 385,184M412,695C412,663 401,636 378,613C355,590 328,579 296,579C264,579 237,590 214,613C191,636 180,663 180,695C180,726 191,753 214,776C237,799 264,810 296,810C328,810 355,799 378,776C401,753 412,726 412,695M249,695C249,682 254,672 263,663C272,654 283,649 296,649C309,649 321,654 330,663C339,672 343,682 343,695C343,708 339,718 330,727C321,736 309,740 296,740C283,740 272,736 263,727C254,718 249,708 249,695z"
   horiz-adv-x="596"
   unicode="å" />
<glyph
   id="glyph524"
   d="M386,0l0,63C368,40 345,23 316,11C287,-1 254,-7 217,-7C160,-7 115,9 82,40C49,71 32,111 32,161C32,212 50,251 86,280C121,308 172,322 237,323l148,0l0,10C385,362 376,384 357,400C338,415 310,423 273,423C223,423 170,407 113,376l-48,106C108,503 148,519 185,529C222,539 263,544 308,544C380,544 436,527 476,493C515,459 535,412 536,351l1,-351M385,184l0,48l-121,0C234,232 212,227 198,218C183,208 176,192 176,171C176,150 184,134 199,122C214,109 234,103 260,103C292,103 320,111 343,126C366,141 380,161 385,184M412,695C412,663 401,636 378,613C355,590 328,579 296,579C264,579 237,590 214,613C191,636 180,663 180,695C180,726 191,753 214,776C237,799 264,810 296,810C328,810 355,799 378,776C401,753 412,726 412,695M249,695C249,682 254,672 263,663C272,654 283,649 296,649C309,649 321,654 330,663C339,672 343,682 343,695C343,708 339,718 330,727C321,736 309,740 296,740C283,740 272,736 263,727C254,718 249,708 249,695M342,985l112,-70l-150,-82l-98,27z"
   horiz-adv-x="596"
   unicode="ǻ" />
<glyph
   id="glyph526"
   d="M386,0l0,63C368,40 345,23 316,11C287,-1 254,-7 217,-7C160,-7 115,9 82,40C49,71 32,111 32,161C32,212 50,251 86,280C121,308 172,322 237,323l148,0l0,10C385,362 376,384 357,400C338,415 310,423 273,423C223,423 170,407 113,376l-48,106C108,503 148,519 185,529C222,539 263,544 308,544C380,544 436,527 476,493C515,459 535,412 536,351l1,-351M385,184l0,48l-121,0C234,232 212,227 198,218C183,208 176,192 176,171C176,150 184,134 199,122C214,109 234,103 260,103C292,103 320,111 343,126C366,141 380,161 385,184M379,600C364,600 350,603 337,608C324,613 308,620 290,629C282,634 274,638 266,641C258,644 251,646 246,646C236,646 229,643 225,636C221,629 219,618 218,603l-91,0C127,651 134,688 149,714C163,740 186,753 219,753C234,753 248,751 261,746C274,741 290,733 308,724C329,712 343,706 352,706C362,706 369,710 373,717C377,724 379,735 380,749l91,0C471,702 464,665 450,639C435,613 412,600 379,600z"
   horiz-adv-x="596"
   unicode="ã" />
<glyph
   id="glyph528"
   d="M684,114C710,114 735,119 758,129C781,139 802,153 821,172l81,-84C874,57 841,34 802,18C763,2 719,-6 672,-6C621,-6 576,4 538,25C499,45 469,74 448,111C427,72 397,43 360,23C322,3 277,-7 225,-7C166,-7 120,8 85,38C50,68 32,108 32,158C32,208 50,246 85,273C120,300 171,313 238,314l149,0l0,23C386,364 375,386 356,401C337,416 309,423 274,423C249,423 221,419 191,411C161,403 131,391 101,376l-36,108C151,524 232,544 308,544C349,544 385,538 416,527C447,516 472,499 491,478C536,521 594,543 667,543C724,543 774,530 817,505C859,480 891,444 913,397C934,350 944,296 941,234l-397,0l0,-11C547,192 562,167 589,146C616,125 648,114 684,114M669,435C635,435 607,424 584,401C561,378 547,349 542,312l246,0C787,348 776,378 754,401C732,424 704,435 669,435M176,171C176,148 184,130 199,117C214,104 235,97 261,97C318,97 361,122 388,171l-1,66l-118,0C239,237 216,231 200,220C184,209 176,192 176,171z"
   horiz-adv-x="969"
   unicode="æ" />
<glyph
   id="glyph530"
   d="M684,114C710,114 735,119 758,129C781,139 802,153 821,172l81,-84C874,57 841,34 802,18C763,2 719,-6 672,-6C621,-6 576,4 538,25C499,45 469,74 448,111C427,72 397,43 360,23C322,3 277,-7 225,-7C166,-7 120,8 85,38C50,68 32,108 32,158C32,208 50,246 85,273C120,300 171,313 238,314l149,0l0,23C386,364 375,386 356,401C337,416 309,423 274,423C249,423 221,419 191,411C161,403 131,391 101,376l-36,108C151,524 232,544 308,544C349,544 385,538 416,527C447,516 472,499 491,478C536,521 594,543 667,543C724,543 774,530 817,505C859,480 891,444 913,397C934,350 944,296 941,234l-397,0l0,-11C547,192 562,167 589,146C616,125 648,114 684,114M669,435C635,435 607,424 584,401C561,378 547,349 542,312l246,0C787,348 776,378 754,401C732,424 704,435 669,435M176,171C176,148 184,130 199,117C214,104 235,97 261,97C318,97 361,122 388,171l-1,66l-118,0C239,237 216,231 200,220C184,209 176,192 176,171M520,765l136,-53l-136,-110l-112,10z"
   horiz-adv-x="969"
   unicode="ǽ" />
<glyph
   id="glyph532"
   d="M656,266C656,212 646,165 625,124C604,83 575,51 538,28C500,5 456,-6 406,-6C369,-6 336,1 307,16C278,30 253,51 233,78l0,-78l-154,0l0,742l154,0l0,-283C252,486 277,507 306,522C335,536 367,543 403,543C453,543 497,532 536,509C574,486 604,453 625,411C646,369 656,321 656,266M500,271C500,314 488,350 463,378C438,405 406,419 367,419C328,419 296,405 271,378C246,350 233,314 233,271C233,226 246,190 271,163C296,136 328,122 367,122C406,122 438,136 463,164C488,191 500,227 500,271z"
   horiz-adv-x="684"
   unicode="b" />
<glyph
   id="glyph534"
   d="M313,412C274,412 243,399 219,373C194,346 182,311 182,268C182,225 194,190 218,163C242,136 273,122 310,122C366,122 408,143 435,185l106,-72C518,75 487,46 446,25C405,4 357,-6 302,-6C248,-6 200,5 159,28C118,51 86,83 63,124C40,165 28,213 28,267C28,322 40,370 63,412C86,453 118,486 160,509C201,532 249,543 304,543C355,543 401,533 441,514C481,494 513,466 537,430l-104,-75C402,393 362,412 313,412z"
   horiz-adv-x="563"
   unicode="c" />
<glyph
   id="glyph536"
   d="M313,412C274,412 243,399 219,373C194,346 182,311 182,268C182,225 194,190 218,163C242,136 273,122 310,122C366,122 408,143 435,185l106,-72C518,75 487,46 446,25C405,4 357,-6 302,-6C248,-6 200,5 159,28C118,51 86,83 63,124C40,165 28,213 28,267C28,322 40,370 63,412C86,453 118,486 160,509C201,532 249,543 304,543C355,543 401,533 441,514C481,494 513,466 537,430l-104,-75C402,393 362,412 313,412M336,765l136,-53l-136,-110l-112,10z"
   horiz-adv-x="563"
   unicode="ć" />
<glyph
   id="glyph538"
   d="M313,412C274,412 243,399 219,373C194,346 182,311 182,268C182,225 194,190 218,163C242,136 273,122 310,122C366,122 408,143 435,185l106,-72C518,75 487,46 446,25C405,4 357,-6 302,-6C248,-6 200,5 159,28C118,51 86,83 63,124C40,165 28,213 28,267C28,322 40,370 63,412C86,453 118,486 160,509C201,532 249,543 304,543C355,543 401,533 441,514C481,494 513,466 537,430l-104,-75C402,393 362,412 313,412M360,759l121,0l-108,-148l-141,0l-109,148l122,0l58,-65z"
   horiz-adv-x="563"
   unicode="č" />
<glyph
   id="glyph540"
   d="M344,-4l-19,-50C353,-60 374,-70 387,-84C400,-99 407,-116 407,-135C407,-166 395,-189 372,-205C349,-221 319,-229 284,-229C250,-229 215,-222 179,-208l26,75C223,-140 241,-143 259,-143C271,-143 281,-141 289,-136C296,-132 300,-127 300,-121C300,-113 295,-107 286,-102C277,-98 264,-96 248,-96l-27,0l30,94C183,8 129,37 89,86C48,135 28,195 28,267C28,322 40,370 63,412C86,453 118,486 160,509C201,532 249,543 304,543C355,543 401,533 441,514C481,494 513,466 537,430l-104,-75C402,393 362,412 313,412C274,412 243,399 219,373C194,346 182,311 182,268C182,225 194,190 218,163C242,136 273,122 310,122C366,122 408,143 435,185l106,-72C522,80 495,54 461,34C427,13 388,1 344,-4z"
   horiz-adv-x="563"
   unicode="ç" />
<glyph
   id="glyph542"
   d="M450,712l-136,-110l-112,10l112,153M344,-4l-19,-50C353,-60 374,-70 387,-84C400,-99 407,-116 407,-135C407,-166 395,-189 372,-205C349,-221 319,-229 284,-229C250,-229 215,-222 179,-208l26,75C223,-140 241,-143 259,-143C271,-143 281,-141 289,-136C296,-132 300,-127 300,-121C300,-113 295,-107 286,-102C277,-98 264,-96 248,-96l-27,0l30,94C183,8 129,37 89,86C48,135 28,195 28,267C28,322 40,370 63,412C86,453 118,486 160,509C201,532 249,543 304,543C355,543 401,533 441,514C481,494 513,466 537,430l-104,-75C402,393 362,412 313,412C274,412 243,399 219,373C194,346 182,311 182,268C182,225 194,190 218,163C242,136 273,122 310,122C366,122 408,143 435,185l106,-72C522,80 495,54 461,34C427,13 388,1 344,-4z"
   horiz-adv-x="563"
   unicode="ḉ" />
<glyph
   id="glyph544"
   d="M313,412C274,412 243,399 219,373C194,346 182,311 182,268C182,225 194,190 218,163C242,136 273,122 310,122C366,122 408,143 435,185l106,-72C518,75 487,46 446,25C405,4 357,-6 302,-6C248,-6 200,5 159,28C118,51 86,83 63,124C40,165 28,213 28,267C28,322 40,370 63,412C86,453 118,486 160,509C201,532 249,543 304,543C355,543 401,533 441,514C481,494 513,466 537,430l-104,-75C402,393 362,412 313,412M481,612l-122,0l-57,65l-58,-65l-121,0l108,148l141,0z"
   horiz-adv-x="563"
   unicode="ĉ" />
<glyph
   id="glyph546"
   d="M313,412C274,412 243,399 219,373C194,346 182,311 182,268C182,225 194,190 218,163C242,136 273,122 310,122C366,122 408,143 435,185l106,-72C518,75 487,46 446,25C405,4 357,-6 302,-6C248,-6 200,5 159,28C118,51 86,83 63,124C40,165 28,213 28,267C28,322 40,370 63,412C86,453 118,486 160,509C201,532 249,543 304,543C355,543 401,533 441,514C481,494 513,466 537,430l-104,-75C402,393 362,412 313,412M385,691C385,666 377,645 362,629C346,613 326,605 301,605C277,605 257,613 242,630C226,646 218,666 218,691C218,716 226,737 242,753C257,769 277,777 301,777C326,777 346,769 362,753C377,737 385,716 385,691z"
   horiz-adv-x="563"
   unicode="ċ" />
<glyph
   id="glyph548"
   d="M605,742l0,-742l-153,0l0,79C433,51 409,30 380,16C351,1 319,-6 282,-6C231,-6 187,6 149,29C110,52 81,84 60,126C39,168 28,216 28,271C28,325 38,373 59,414C80,455 109,487 147,510C185,533 229,544 278,544C354,544 412,516 452,459l0,283M452,267C452,311 440,347 415,375C390,402 357,416 318,416C278,416 246,402 221,375C196,347 183,311 182,267C183,223 196,187 221,160C246,132 278,118 318,118C357,118 390,132 415,160C440,187 452,223 452,267z"
   horiz-adv-x="685"
   unicode="d" />
<glyph
   id="glyph550"
   d="M572,279C572,222 560,171 537,128C513,85 479,51 436,28C392,5 341,-7 283,-7C232,-7 187,3 148,22C109,41 79,68 58,103C37,138 26,178 26,225C26,292 47,345 88,385C129,425 184,445 253,445C288,445 320,439 351,427C381,415 404,399 420,379C416,411 404,443 384,474C364,505 338,535 305,563l-177,-81l-32,66l143,66C199,640 156,663 109,682l103,67C265,727 313,700 356,668l140,64l32,-66l-110,-50C467,569 505,516 532,458C559,399 572,340 572,279M408,231C408,263 397,289 376,309C355,328 326,338 290,338C255,338 226,329 205,310C184,291 173,265 173,233C173,200 184,174 205,155C226,135 255,125 290,125C326,125 355,135 376,154C397,173 408,199 408,231z"
   horiz-adv-x="600"
   unicode="ð" />
<glyph
   id="glyph552"
   d="M605,742l0,-742l-153,0l0,79C433,51 409,30 380,16C351,1 319,-6 282,-6C231,-6 187,6 149,29C110,52 81,84 60,126C39,168 28,216 28,271C28,325 38,373 59,414C80,455 109,487 147,510C185,533 229,544 278,544C354,544 412,516 452,459l0,283M452,267C452,311 440,347 415,375C390,402 357,416 318,416C278,416 246,402 221,375C196,347 183,311 182,267C183,223 196,187 221,160C246,132 278,118 318,118C357,118 390,132 415,160C440,187 452,223 452,267M687,742l125,0l-30,-212l-95,0z"
   horiz-adv-x="788"
   unicode="ď" />
<glyph
   id="glyph554"
   d="M672,581l-67,0l0,-581l-153,0l0,80C432,53 407,32 378,17C349,2 316,-6 280,-6C231,-6 187,5 149,27C110,49 81,80 60,120C39,159 28,205 28,257C28,308 38,353 59,392C80,431 109,461 147,482C184,503 227,514 276,514C313,514 346,507 377,492C407,477 432,455 452,427l0,154l-185,0l0,80l185,0l0,81l153,0l0,-81l67,0M452,252C452,292 440,325 415,350C390,375 357,387 318,387C278,387 245,375 220,350C195,325 182,292 182,252C182,213 195,181 220,156C245,131 278,118 318,118C357,118 390,131 415,156C440,181 452,213 452,252z"
   horiz-adv-x="684"
   unicode="đ" />
<glyph
   id="glyph556"
   d="M605,742l0,-742l-153,0l0,79C433,51 409,30 380,16C351,1 319,-6 282,-6C231,-6 187,6 149,29C110,52 81,84 60,126C39,168 28,216 28,271C28,325 38,373 59,414C80,455 109,487 147,510C185,533 229,544 278,544C354,544 412,516 452,459l0,283M452,267C452,311 440,347 415,375C390,402 357,416 318,416C278,416 246,402 221,375C196,347 183,311 182,267C183,223 196,187 221,160C246,132 278,118 318,118C357,118 390,132 415,160C440,187 452,223 452,267M439,-156C439,-181 431,-202 416,-218C400,-234 380,-242 355,-242C331,-242 311,-234 296,-217C280,-201 272,-181 272,-156C272,-131 280,-110 296,-94C311,-78 331,-70 355,-70C380,-70 400,-78 416,-94C431,-110 439,-131 439,-156z"
   horiz-adv-x="685"
   unicode="ḍ" />
<glyph
   id="glyph558"
   d="M605,742l0,-742l-153,0l0,79C433,51 409,30 380,16C351,1 319,-6 282,-6C231,-6 187,6 149,29C110,52 81,84 60,126C39,168 28,216 28,271C28,325 38,373 59,414C80,455 109,487 147,510C185,533 229,544 278,544C354,544 412,516 452,459l0,283M452,267C452,311 440,347 415,375C390,402 357,416 318,416C278,416 246,402 221,375C196,347 183,311 182,267C183,223 196,187 221,160C246,132 278,118 318,118C357,118 390,132 415,160C440,187 452,223 452,267M204,-78l303,0l0,-94l-303,0z"
   horiz-adv-x="685"
   unicode="ḏ" />
<glyph
   id="glyph560"
   d="M605,742l0,-742l-153,0l0,79C433,51 409,30 380,16C351,1 319,-6 282,-6C231,-6 187,6 149,29C110,52 81,84 60,126C39,168 28,216 28,271C28,325 38,373 59,414C80,455 109,487 147,510C185,533 229,544 278,544C354,544 412,516 452,459l0,283M452,267C452,311 440,347 415,375C390,402 357,416 318,416C278,416 246,402 221,375C196,347 183,311 182,267C183,223 196,187 221,160C246,132 278,118 318,118C357,118 390,132 415,160C440,187 452,223 452,267M733,537l459,0l0,-97l-277,-319l286,0l0,-122l-478,1l0,97l277,319l-267,1M1020,759l121,0l-108,-148l-141,0l-109,148l122,0l58,-65z"
   horiz-adv-x="1233"
   unicode="ǆ" />
<glyph
   id="glyph562"
   d="M570,259C570,243 570,231 569,222l-386,0C192,188 208,162 233,143C258,124 287,114 322,114C347,114 372,119 395,129C418,138 439,152 458,171l81,-82C512,58 479,35 440,19C401,2 357,-6 309,-6C252,-6 203,5 161,28C118,51 86,83 63,124C40,165 28,213 28,267C28,322 40,370 63,412C86,453 119,486 161,509C203,532 251,543 305,543C392,543 458,518 503,468C548,418 570,348 570,259M425,313C424,348 412,377 391,398C370,419 341,430 306,430C273,430 245,420 223,399C200,378 186,349 180,313z"
   horiz-adv-x="597"
   unicode="e" />
<glyph
   id="glyph564"
   d="M570,259C570,243 570,231 569,222l-386,0C192,188 208,162 233,143C258,124 287,114 322,114C347,114 372,119 395,129C418,138 439,152 458,171l81,-82C512,58 479,35 440,19C401,2 357,-6 309,-6C252,-6 203,5 161,28C118,51 86,83 63,124C40,165 28,213 28,267C28,322 40,370 63,412C86,453 119,486 161,509C203,532 251,543 305,543C392,543 458,518 503,468C548,418 570,348 570,259M425,313C424,348 412,377 391,398C370,419 341,430 306,430C273,430 245,420 223,399C200,378 186,349 180,313M334,764l136,-53l-136,-110l-112,10z"
   horiz-adv-x="597"
   unicode="é" />
<glyph
   id="glyph566"
   d="M570,259C570,243 570,231 569,222l-386,0C192,188 208,162 233,143C258,124 287,114 322,114C347,114 372,119 395,129C418,138 439,152 458,171l81,-82C512,58 479,35 440,19C401,2 357,-6 309,-6C252,-6 203,5 161,28C118,51 86,83 63,124C40,165 28,213 28,267C28,322 40,370 63,412C86,453 119,486 161,509C203,532 251,543 305,543C392,543 458,518 503,468C548,418 570,348 570,259M425,313C424,348 412,377 391,398C370,419 341,430 306,430C273,430 245,420 223,399C200,378 186,349 180,313M300,696C316,696 329,702 340,713C351,724 357,738 358,756l98,0C454,709 439,672 410,644C381,616 345,602 300,602C255,602 218,616 189,644C160,672 145,709 144,756l98,0C243,738 249,724 260,713C271,702 284,696 300,696z"
   horiz-adv-x="597"
   unicode="ĕ" />
<glyph
   id="glyph568"
   d="M570,259C570,243 570,231 569,222l-386,0C192,188 208,162 233,143C258,124 287,114 322,114C347,114 372,119 395,129C418,138 439,152 458,171l81,-82C512,58 479,35 440,19C401,2 357,-6 309,-6C252,-6 203,5 161,28C118,51 86,83 63,124C40,165 28,213 28,267C28,322 40,370 63,412C86,453 119,486 161,509C203,532 251,543 305,543C392,543 458,518 503,468C548,418 570,348 570,259M425,313C424,348 412,377 391,398C370,419 341,430 306,430C273,430 245,420 223,399C200,378 186,349 180,313M358,758l121,0l-108,-148l-141,0l-109,148l122,0l58,-65z"
   horiz-adv-x="597"
   unicode="ě" />
<glyph
   id="glyph570"
   d="M137,757l98,0C236,739 242,725 253,714C264,703 277,697 293,697C309,697 322,703 333,714C344,725 350,739 351,757l98,0C447,710 432,673 403,645C374,617 338,603 293,603C248,603 211,617 182,645C153,673 138,710 137,757M570,259C570,243 570,231 569,222l-386,0C192,188 208,162 233,143C258,124 287,114 322,114C347,114 372,119 395,129C418,138 439,152 458,171l81,-82C493,38 432,7 357,-3l-19,-51C366,-60 387,-70 400,-84C413,-99 420,-116 420,-135C420,-166 408,-189 385,-205C362,-221 332,-229 297,-229C263,-229 228,-222 192,-208l26,75C236,-140 254,-143 272,-143C284,-143 294,-141 302,-136C309,-132 313,-127 313,-121C313,-113 308,-107 299,-102C290,-98 277,-96 261,-96l-27,0l30,93C191,6 134,34 92,83C49,132 28,193 28,267C28,322 40,370 63,412C86,453 119,486 161,509C203,532 251,543 305,543C392,543 458,518 503,468C548,418 570,348 570,259M425,313C424,348 412,377 391,398C370,419 341,430 306,430C273,430 245,420 223,399C200,378 186,349 180,313z"
   horiz-adv-x="597"
   unicode="ḝ" />
<glyph
   id="glyph572"
   d="M570,259C570,243 570,231 569,222l-386,0C192,188 208,162 233,143C258,124 287,114 322,114C347,114 372,119 395,129C418,138 439,152 458,171l81,-82C512,58 479,35 440,19C401,2 357,-6 309,-6C252,-6 203,5 161,28C118,51 86,83 63,124C40,165 28,213 28,267C28,322 40,370 63,412C86,453 119,486 161,509C203,532 251,543 305,543C392,543 458,518 503,468C548,418 570,348 570,259M425,313C424,348 412,377 391,398C370,419 341,430 306,430C273,430 245,420 223,399C200,378 186,349 180,313M479,611l-122,0l-57,65l-58,-65l-121,0l108,148l141,0z"
   horiz-adv-x="597"
   unicode="ê" />
<glyph
   id="glyph574"
   d="M570,259C570,243 570,231 569,222l-386,0C192,188 208,162 233,143C258,124 287,114 322,114C347,114 372,119 395,129C418,138 439,152 458,171l81,-82C512,58 479,35 440,19C401,2 357,-6 309,-6C252,-6 203,5 161,28C118,51 86,83 63,124C40,165 28,213 28,267C28,322 40,370 63,412C86,453 119,486 161,509C203,532 251,543 305,543C392,543 458,518 503,468C548,418 570,348 570,259M425,313C424,348 412,377 391,398C370,419 341,430 306,430C273,430 245,420 223,399C200,378 186,349 180,313M498,601l-134,0l-64,57l-65,-57l-134,0l111,115l174,0M345,898l112,-70l-150,-82l-98,27z"
   horiz-adv-x="597"
   unicode="ế" />
<glyph
   id="glyph576"
   d="M570,259C570,243 570,231 569,222l-386,0C192,188 208,162 233,143C258,124 287,114 322,114C347,114 372,119 395,129C418,138 439,152 458,171l81,-82C512,58 479,35 440,19C401,2 357,-6 309,-6C252,-6 203,5 161,28C118,51 86,83 63,124C40,165 28,213 28,267C28,322 40,370 63,412C86,453 119,486 161,509C203,532 251,543 305,543C392,543 458,518 503,468C548,418 570,348 570,259M425,313C424,348 412,377 391,398C370,419 341,430 306,430C273,430 245,420 223,399C200,378 186,349 180,313M386,-156C386,-181 378,-202 363,-218C347,-234 327,-242 302,-242C278,-242 258,-234 243,-217C227,-201 219,-181 219,-156C219,-131 227,-110 243,-94C258,-78 278,-70 302,-70C327,-70 347,-78 363,-94C378,-110 386,-131 386,-156M482,612l-122,0l-57,65l-58,-65l-121,0l108,148l141,0z"
   horiz-adv-x="597"
   unicode="ệ" />
<glyph
   id="glyph578"
   d="M570,259C570,243 570,231 569,222l-386,0C192,188 208,162 233,143C258,124 287,114 322,114C347,114 372,119 395,129C418,138 439,152 458,171l81,-82C512,58 479,35 440,19C401,2 357,-6 309,-6C252,-6 203,5 161,28C118,51 86,83 63,124C40,165 28,213 28,267C28,322 40,370 63,412C86,453 119,486 161,509C203,532 251,543 305,543C392,543 458,518 503,468C548,418 570,348 570,259M425,313C424,348 412,377 391,398C370,419 341,430 306,430C273,430 245,420 223,399C200,378 186,349 180,313M498,601l-134,0l-64,57l-65,-57l-134,0l111,115l174,0M242,898l135,-125l-97,-27l-151,82z"
   horiz-adv-x="597"
   unicode="ề" />
<glyph
   id="glyph580"
   d="M570,259C570,243 570,231 569,222l-386,0C192,188 208,162 233,143C258,124 287,114 322,114C347,114 372,119 395,129C418,138 439,152 458,171l81,-82C512,58 479,35 440,19C401,2 357,-6 309,-6C252,-6 203,5 161,28C118,51 86,83 63,124C40,165 28,213 28,267C28,322 40,370 63,412C86,453 119,486 161,509C203,532 251,543 305,543C392,543 458,518 503,468C548,418 570,348 570,259M425,313C424,348 412,377 391,398C370,419 341,430 306,430C273,430 245,420 223,399C200,378 186,349 180,313M498,601l-134,0l-64,57l-65,-57l-134,0l111,115l174,0M386,846C386,811 362,778 315,745l-66,26C273,788 285,804 285,819C285,825 283,830 279,833C275,836 270,837 263,837C252,837 242,834 233,827l-40,58C226,906 260,916 294,916C323,916 345,909 362,896C378,883 386,866 386,846z"
   horiz-adv-x="597"
   unicode="ể" />
<glyph
   id="glyph582"
   d="M570,259C570,243 570,231 569,222l-386,0C192,188 208,162 233,143C258,124 287,114 322,114C347,114 372,119 395,129C418,138 439,152 458,171l81,-82C512,58 479,35 440,19C401,2 357,-6 309,-6C252,-6 203,5 161,28C118,51 86,83 63,124C40,165 28,213 28,267C28,322 40,370 63,412C86,453 119,486 161,509C203,532 251,543 305,543C392,543 458,518 503,468C548,418 570,348 570,259M425,313C424,348 412,377 391,398C370,419 341,430 306,430C273,430 245,420 223,399C200,378 186,349 180,313M498,601l-134,0l-64,57l-65,-57l-134,0l111,115l174,0M379,750C363,750 348,752 334,757C320,762 304,768 285,777C283,778 276,781 265,786C253,791 243,793 236,793C225,793 217,790 212,783C207,776 205,766 205,753l-76,0C129,794 136,825 150,848C164,870 187,881 219,881C235,881 251,879 266,874C281,869 297,863 315,854C338,843 354,838 363,838C374,838 381,841 386,848C391,855 393,865 393,878l77,0C470,837 463,805 449,783C434,761 411,750 379,750z"
   horiz-adv-x="597"
   unicode="ễ" />
<glyph
   id="glyph584"
   d="M570,259C570,243 570,231 569,222l-386,0C192,188 208,162 233,143C258,124 287,114 322,114C347,114 372,119 395,129C418,138 439,152 458,171l81,-82C512,58 479,35 440,19C401,2 357,-6 309,-6C252,-6 203,5 161,28C118,51 86,83 63,124C40,165 28,213 28,267C28,322 40,370 63,412C86,453 119,486 161,509C203,532 251,543 305,543C392,543 458,518 503,468C548,418 570,348 570,259M425,313C424,348 412,377 391,398C370,419 341,430 306,430C273,430 245,420 223,399C200,378 186,349 180,313M196,768l79,-157l-109,-10l-91,120M380,768l80,-157l-109,-10l-91,120z"
   horiz-adv-x="597"
   unicode="ȅ" />
<glyph
   id="glyph586"
   d="M570,259C570,243 570,231 569,222l-386,0C192,188 208,162 233,143C258,124 287,114 322,114C347,114 372,119 395,129C418,138 439,152 458,171l81,-82C512,58 479,35 440,19C401,2 357,-6 309,-6C252,-6 203,5 161,28C118,51 86,83 63,124C40,165 28,213 28,267C28,322 40,370 63,412C86,453 119,486 161,509C203,532 251,543 305,543C392,543 458,518 503,468C548,418 570,348 570,259M425,313C424,348 412,377 391,398C370,419 341,430 306,430C273,430 245,420 223,399C200,378 186,349 180,313M277,685C277,664 270,647 257,634C244,621 227,614 207,614C186,614 170,621 157,634C144,647 137,664 137,685C137,706 144,724 157,737C170,750 186,757 207,757C227,757 244,750 257,737C270,723 277,706 277,685M463,685C463,664 457,647 444,634C431,621 414,614 393,614C373,614 356,621 343,634C330,647 323,664 323,685C323,706 330,723 343,737C356,750 373,757 393,757C414,757 431,750 444,737C457,724 463,706 463,685z"
   horiz-adv-x="597"
   unicode="ë" />
<glyph
   id="glyph588"
   d="M570,259C570,243 570,231 569,222l-386,0C192,188 208,162 233,143C258,124 287,114 322,114C347,114 372,119 395,129C418,138 439,152 458,171l81,-82C512,58 479,35 440,19C401,2 357,-6 309,-6C252,-6 203,5 161,28C118,51 86,83 63,124C40,165 28,213 28,267C28,322 40,370 63,412C86,453 119,486 161,509C203,532 251,543 305,543C392,543 458,518 503,468C548,418 570,348 570,259M425,313C424,348 412,377 391,398C370,419 341,430 306,430C273,430 245,420 223,399C200,378 186,349 180,313M383,690C383,665 375,644 360,628C344,612 324,604 299,604C275,604 255,612 240,629C224,645 216,665 216,690C216,715 224,736 240,752C255,768 275,776 299,776C324,776 344,768 360,752C375,736 383,715 383,690z"
   horiz-adv-x="597"
   unicode="ė" />
<glyph
   id="glyph590"
   d="M570,259C570,243 570,231 569,222l-386,0C192,188 208,162 233,143C258,124 287,114 322,114C347,114 372,119 395,129C418,138 439,152 458,171l81,-82C512,58 479,35 440,19C401,2 357,-6 309,-6C252,-6 203,5 161,28C118,51 86,83 63,124C40,165 28,213 28,267C28,322 40,370 63,412C86,453 119,486 161,509C203,532 251,543 305,543C392,543 458,518 503,468C548,418 570,348 570,259M425,313C424,348 412,377 391,398C370,419 341,430 306,430C273,430 245,420 223,399C200,378 186,349 180,313M386,-156C386,-181 378,-202 363,-218C347,-234 327,-242 302,-242C278,-242 258,-234 243,-217C227,-201 219,-181 219,-156C219,-131 227,-110 243,-94C258,-78 278,-70 302,-70C327,-70 347,-78 363,-94C378,-110 386,-131 386,-156z"
   horiz-adv-x="597"
   unicode="ẹ" />
<glyph
   id="glyph592"
   d="M570,259C570,243 570,231 569,222l-386,0C192,188 208,162 233,143C258,124 287,114 322,114C347,114 372,119 395,129C418,138 439,152 458,171l81,-82C512,58 479,35 440,19C401,2 357,-6 309,-6C252,-6 203,5 161,28C118,51 86,83 63,124C40,165 28,213 28,267C28,322 40,370 63,412C86,453 119,486 161,509C203,532 251,543 305,543C392,543 458,518 503,468C548,418 570,348 570,259M425,313C424,348 412,377 391,398C370,419 341,430 306,430C273,430 245,420 223,399C200,378 186,349 180,313M265,764l104,-153l-112,-10l-128,110z"
   horiz-adv-x="597"
   unicode="è" />
<glyph
   id="glyph594"
   d="M570,259C570,243 570,231 569,222l-386,0C192,188 208,162 233,143C258,124 287,114 322,114C347,114 372,119 395,129C418,138 439,152 458,171l81,-82C512,58 479,35 440,19C401,2 357,-6 309,-6C252,-6 203,5 161,28C118,51 86,83 63,124C40,165 28,213 28,267C28,322 40,370 63,412C86,453 119,486 161,509C203,532 251,543 305,543C392,543 458,518 503,468C548,418 570,348 570,259M425,313C424,348 412,377 391,398C370,419 341,430 306,430C273,430 245,420 223,399C200,378 186,349 180,313M412,715C412,693 405,670 390,647C375,623 354,601 329,580l-72,31C270,624 281,637 289,651C296,665 300,678 300,689C300,697 297,703 292,708C287,713 280,715 272,715C260,715 248,711 235,702l-42,68C228,793 265,805 304,805C337,805 363,797 383,781C402,765 412,743 412,715z"
   horiz-adv-x="597"
   unicode="ẻ" />
<glyph
   id="glyph596"
   d="M570,259C570,243 570,231 569,222l-386,0C192,188 208,162 233,143C258,124 287,114 322,114C347,114 372,119 395,129C418,138 439,152 458,171l81,-82C512,58 479,35 440,19C401,2 357,-6 309,-6C252,-6 203,5 161,28C118,51 86,83 63,124C40,165 28,213 28,267C28,322 40,370 63,412C86,453 119,486 161,509C203,532 251,543 305,543C392,543 458,518 503,468C548,418 570,348 570,259M425,313C424,348 412,377 391,398C370,419 341,430 306,430C273,430 245,420 223,399C200,378 186,349 180,313M144,602C145,649 160,686 189,714C218,742 255,756 300,756C345,756 381,742 410,714C439,686 454,649 456,602l-98,0C357,619 351,634 340,645C329,656 316,662 300,662C284,662 271,656 260,645C249,634 243,619 242,602z"
   horiz-adv-x="597"
   unicode="ȇ" />
<glyph
   id="glyph598"
   d="M570,259C570,243 570,231 569,222l-386,0C192,188 208,162 233,143C258,124 287,114 322,114C347,114 372,119 395,129C418,138 439,152 458,171l81,-82C512,58 479,35 440,19C401,2 357,-6 309,-6C252,-6 203,5 161,28C118,51 86,83 63,124C40,165 28,213 28,267C28,322 40,370 63,412C86,453 119,486 161,509C203,532 251,543 305,543C392,543 458,518 503,468C548,418 570,348 570,259M425,313C424,348 412,377 391,398C370,419 341,430 306,430C273,430 245,420 223,399C200,378 186,349 180,313M148,734l303,0l0,-94l-303,0z"
   horiz-adv-x="597"
   unicode="ē" />
<glyph
   id="glyph600"
   d="M570,259C570,243 570,231 569,222l-386,0C192,188 208,162 233,143C258,124 287,114 322,114C347,114 372,119 395,129C418,138 439,152 458,171l81,-82C512,58 479,35 440,19C401,2 357,-6 309,-6C252,-6 203,5 161,28C118,51 86,83 63,124C40,165 28,213 28,267C28,322 40,370 63,412C86,453 119,486 161,509C203,532 251,543 305,543C392,543 458,518 503,468C548,418 570,348 570,259M425,313C424,348 412,377 391,398C370,419 341,430 306,430C273,430 245,420 223,399C200,378 186,349 180,313M148,691l278,0l0,-90l-278,0M333,885l112,-70l-150,-82l-98,27z"
   horiz-adv-x="597"
   unicode="ḗ" />
<glyph
   id="glyph602"
   d="M570,259C570,243 570,231 569,222l-386,0C192,188 208,162 233,143C258,124 287,114 322,114C347,114 372,119 395,129C418,138 439,152 458,171l81,-82C512,58 479,35 440,19C401,2 357,-6 309,-6C252,-6 203,5 161,28C118,51 86,83 63,124C40,165 28,213 28,267C28,322 40,370 63,412C86,453 119,486 161,509C203,532 251,543 305,543C392,543 458,518 503,468C548,418 570,348 570,259M425,313C424,348 412,377 391,398C370,419 341,430 306,430C273,430 245,420 223,399C200,378 186,349 180,313M146,691l278,0l0,-90l-278,0M228,885l135,-125l-97,-27l-151,82z"
   horiz-adv-x="597"
   unicode="ḕ" />
<glyph
   id="glyph604"
   d="M570,259C570,243 570,231 569,222l-386,0C192,188 208,162 233,143C258,124 287,114 322,114C347,114 372,119 395,129C418,138 439,152 458,171l81,-82C526,74 512,61 495,50C471,27 452,2 437,-25C422,-52 414,-76 414,-96C414,-117 422,-127 438,-127C449,-127 459,-124 468,-119l28,-88C464,-221 434,-228 405,-228C372,-228 345,-219 325,-200C304,-182 294,-156 294,-121C294,-81 310,-42 343,-5l-34,-1C252,-6 203,5 161,28C118,51 86,83 63,124C40,165 28,213 28,267C28,322 40,370 63,412C86,453 119,486 161,509C203,532 251,543 305,543C392,543 458,518 503,468C548,418 570,348 570,259M425,313C424,348 412,377 391,398C370,419 341,430 306,430C273,430 245,420 223,399C200,378 186,349 180,313z"
   horiz-adv-x="597"
   unicode="ę" />
<glyph
   id="glyph606"
   d="M570,259C570,243 570,231 569,222l-386,0C192,188 208,162 233,143C258,124 287,114 322,114C347,114 372,119 395,129C418,138 439,152 458,171l81,-82C512,58 479,35 440,19C401,2 357,-6 309,-6C252,-6 203,5 161,28C118,51 86,83 63,124C40,165 28,213 28,267C28,322 40,370 63,412C86,453 119,486 161,509C203,532 251,543 305,543C392,543 458,518 503,468C548,418 570,348 570,259M425,313C424,348 412,377 391,398C370,419 341,430 306,430C273,430 245,420 223,399C200,378 186,349 180,313M383,599C368,599 354,602 341,607C328,612 312,619 294,628C286,633 278,637 270,640C262,643 255,645 250,645C240,645 233,642 229,635C225,628 223,617 222,602l-91,0C131,650 138,687 153,713C167,739 190,752 223,752C238,752 252,750 265,745C278,740 294,732 312,723C333,711 347,705 356,705C366,705 373,709 377,716C381,723 383,734 384,748l91,0C475,701 468,664 454,638C439,612 416,599 383,599z"
   horiz-adv-x="597"
   unicode="ẽ" />
<glyph
   id="glyph608"
   d="M569,271C569,216 557,168 534,127C511,85 478,53 436,30C394,7 346,-5 292,-5C205,-5 140,20 95,70C50,120 27,190 27,279C27,295 27,307 28,316l386,0C405,350 389,377 364,396C339,415 310,424 275,424C250,424 225,419 202,410C179,400 158,386 139,367l-81,82C85,480 119,503 158,520C197,536 240,544 288,544C345,544 394,533 437,510C479,487 512,455 535,414C558,373 569,325 569,271M417,225l-245,0C173,190 185,161 206,140C227,119 256,108 291,108C324,108 352,119 375,140C397,161 411,189 417,225z"
   horiz-adv-x="597"
   unicode="ə" />
<glyph
   id="glyph610"
   d="M256,559l0,-45l127,0l0,-107l-127,0l0,-407l-153,0l0,407l-72,0l0,107l72,0l0,51C103,604 112,637 130,665C147,692 171,713 201,728C231,742 264,749 301,749C336,749 371,742 407,727l-23,-120C374,611 363,615 352,618C341,621 330,622 320,622C301,622 286,617 274,606C262,595 256,580 256,559z"
   horiz-adv-x="380"
   unicode="f" />
<glyph
   id="glyph612"
   d="M578,538l0,-488C578,-1 566,-45 542,-82C518,-120 484,-149 441,-169C398,-190 348,-200 291,-200C247,-200 205,-194 166,-181C126,-168 90,-151 57,-129l57,108C165,-57 220,-75 281,-75C325,-75 360,-64 386,-42C412,-21 425,8 425,45l0,61C407,81 384,61 357,48C330,35 298,28 263,28C217,28 176,39 141,61C105,82 77,113 58,152C38,191 28,237 28,288C28,339 38,383 58,422C77,460 105,490 141,511C176,532 217,543 263,543C298,543 329,536 356,523C383,509 406,490 425,465l0,73M425,284C425,325 413,359 390,385C367,411 336,424 299,424C262,424 231,411 208,385C185,359 173,325 172,284C173,243 185,209 208,184C231,158 261,145 299,145C336,145 367,158 390,184C413,209 425,243 425,284z"
   horiz-adv-x="645"
   unicode="g" />
<glyph
   id="glyph614"
   d="M578,538l0,-488C578,-1 566,-45 542,-82C518,-120 484,-149 441,-169C398,-190 348,-200 291,-200C247,-200 205,-194 166,-181C126,-168 90,-151 57,-129l57,108C165,-57 220,-75 281,-75C325,-75 360,-64 386,-42C412,-21 425,8 425,45l0,61C407,81 384,61 357,48C330,35 298,28 263,28C217,28 176,39 141,61C105,82 77,113 58,152C38,191 28,237 28,288C28,339 38,383 58,422C77,460 105,490 141,511C176,532 217,543 263,543C298,543 329,536 356,523C383,509 406,490 425,465l0,73M425,284C425,325 413,359 390,385C367,411 336,424 299,424C262,424 231,411 208,385C185,359 173,325 172,284C173,243 185,209 208,184C231,158 261,145 299,145C336,145 367,158 390,184C413,209 425,243 425,284M308,697C324,697 337,703 348,714C359,725 365,739 366,757l98,0C462,710 447,673 418,645C389,617 353,603 308,603C263,603 226,617 197,645C168,673 153,710 152,757l98,0C251,739 257,725 268,714C279,703 292,697 308,697z"
   horiz-adv-x="645"
   unicode="ğ" />
<glyph
   id="glyph616"
   d="M578,538l0,-488C578,-1 566,-45 542,-82C518,-120 484,-149 441,-169C398,-190 348,-200 291,-200C247,-200 205,-194 166,-181C126,-168 90,-151 57,-129l57,108C165,-57 220,-75 281,-75C325,-75 360,-64 386,-42C412,-21 425,8 425,45l0,61C407,81 384,61 357,48C330,35 298,28 263,28C217,28 176,39 141,61C105,82 77,113 58,152C38,191 28,237 28,288C28,339 38,383 58,422C77,460 105,490 141,511C176,532 217,543 263,543C298,543 329,536 356,523C383,509 406,490 425,465l0,73M425,284C425,325 413,359 390,385C367,411 336,424 299,424C262,424 231,411 208,385C185,359 173,325 172,284C173,243 185,209 208,184C231,158 261,145 299,145C336,145 367,158 390,184C413,209 425,243 425,284M366,759l121,0l-108,-148l-141,0l-109,148l122,0l58,-65z"
   horiz-adv-x="645"
   unicode="ǧ" />
<glyph
   id="glyph618"
   d="M578,538l0,-488C578,-1 566,-45 542,-82C518,-120 484,-149 441,-169C398,-190 348,-200 291,-200C247,-200 205,-194 166,-181C126,-168 90,-151 57,-129l57,108C165,-57 220,-75 281,-75C325,-75 360,-64 386,-42C412,-21 425,8 425,45l0,61C407,81 384,61 357,48C330,35 298,28 263,28C217,28 176,39 141,61C105,82 77,113 58,152C38,191 28,237 28,288C28,339 38,383 58,422C77,460 105,490 141,511C176,532 217,543 263,543C298,543 329,536 356,523C383,509 406,490 425,465l0,73M425,284C425,325 413,359 390,385C367,411 336,424 299,424C262,424 231,411 208,385C185,359 173,325 172,284C173,243 185,209 208,184C231,158 261,145 299,145C336,145 367,158 390,184C413,209 425,243 425,284M487,612l-122,0l-57,65l-58,-65l-121,0l108,148l141,0z"
   horiz-adv-x="645"
   unicode="ĝ" />
<glyph
   id="glyph620"
   d="M578,538l0,-488C578,-1 566,-45 542,-82C518,-120 484,-149 441,-169C398,-190 348,-200 291,-200C247,-200 205,-194 166,-181C126,-168 90,-151 57,-129l57,108C165,-57 220,-75 281,-75C325,-75 360,-64 386,-42C412,-21 425,8 425,45l0,61C407,81 384,61 357,48C330,35 298,28 263,28C217,28 176,39 141,61C105,82 77,113 58,152C38,191 28,237 28,288C28,339 38,383 58,422C77,460 105,490 141,511C176,532 217,543 263,543C298,543 329,536 356,523C383,509 406,490 425,465l0,73M425,284C425,325 413,359 390,385C367,411 336,424 299,424C262,424 231,411 208,385C185,359 173,325 172,284C173,243 185,209 208,184C231,158 261,145 299,145C336,145 367,158 390,184C413,209 425,243 425,284M364,611l-130,0l68,170l95,0z"
   horiz-adv-x="645"
   unicode="ģ" />
<glyph
   id="glyph622"
   d="M578,538l0,-488C578,-1 566,-45 542,-82C518,-120 484,-149 441,-169C398,-190 348,-200 291,-200C247,-200 205,-194 166,-181C126,-168 90,-151 57,-129l57,108C165,-57 220,-75 281,-75C325,-75 360,-64 386,-42C412,-21 425,8 425,45l0,61C407,81 384,61 357,48C330,35 298,28 263,28C217,28 176,39 141,61C105,82 77,113 58,152C38,191 28,237 28,288C28,339 38,383 58,422C77,460 105,490 141,511C176,532 217,543 263,543C298,543 329,536 356,523C383,509 406,490 425,465l0,73M425,284C425,325 413,359 390,385C367,411 336,424 299,424C262,424 231,411 208,385C185,359 173,325 172,284C173,243 185,209 208,184C231,158 261,145 299,145C336,145 367,158 390,184C413,209 425,243 425,284M391,691C391,666 383,645 368,629C352,613 332,605 307,605C283,605 263,613 248,630C232,646 224,666 224,691C224,716 232,737 248,753C263,769 283,777 307,777C332,777 352,769 368,753C383,737 391,716 391,691z"
   horiz-adv-x="645"
   unicode="ġ" />
<glyph
   id="glyph624"
   d="M578,538l0,-488C578,-1 566,-45 542,-82C518,-120 484,-149 441,-169C398,-190 348,-200 291,-200C247,-200 205,-194 166,-181C126,-168 90,-151 57,-129l57,108C165,-57 220,-75 281,-75C325,-75 360,-64 386,-42C412,-21 425,8 425,45l0,61C407,81 384,61 357,48C330,35 298,28 263,28C217,28 176,39 141,61C105,82 77,113 58,152C38,191 28,237 28,288C28,339 38,383 58,422C77,460 105,490 141,511C176,532 217,543 263,543C298,543 329,536 356,523C383,509 406,490 425,465l0,73M425,284C425,325 413,359 390,385C367,411 336,424 299,424C262,424 231,411 208,385C185,359 173,325 172,284C173,243 185,209 208,184C231,158 261,145 299,145C336,145 367,158 390,184C413,209 425,243 425,284M156,735l303,0l0,-94l-303,0z"
   horiz-adv-x="645"
   unicode="ḡ" />
<glyph
   id="glyph626"
   d="M617,338l0,-338l-154,0l0,293C463,327 454,354 435,374C416,393 390,403 357,403C319,402 289,389 267,364C244,338 233,305 233,265l0,-265l-154,0l0,742l154,0l0,-299C270,509 332,543 419,544C480,544 528,525 564,488C599,451 617,401 617,338z"
   horiz-adv-x="675"
   unicode="h" />
<glyph
   id="glyph628"
   d="M617,308l0,-308l-154,0l0,264C463,298 454,325 435,344C416,363 390,373 357,373C319,373 289,360 267,334C244,308 233,275 233,235l0,-235l-154,0l0,581l-66,0l0,80l66,0l0,81l154,0l0,-81l185,0l0,-80l-185,0l0,-168C270,480 332,514 419,514C480,514 528,496 564,459C599,422 617,371 617,308z"
   horiz-adv-x="675"
   unicode="ħ" />
<glyph
   id="glyph630"
   d="M617,338l0,-338l-154,0l0,293C463,327 454,354 435,374C416,393 390,403 357,403C319,402 289,389 267,364C244,338 233,305 233,265l0,-265l-154,0l0,742l154,0l0,-299C270,509 332,543 419,544C480,544 528,525 564,488C599,451 617,401 617,338M348,-116C364,-116 377,-110 388,-99C399,-88 405,-74 406,-56l98,0C502,-103 487,-140 458,-168C429,-196 393,-210 348,-210C303,-210 266,-196 237,-168C208,-140 193,-103 192,-56l98,0C291,-74 297,-88 308,-99C319,-110 332,-116 348,-116z"
   horiz-adv-x="675"
   unicode="ḫ" />
<glyph
   id="glyph632"
   d="M617,338l0,-338l-154,0l0,293C463,327 454,354 435,374C416,393 390,403 357,403C319,402 289,389 267,364C244,338 233,305 233,265l0,-265l-154,0l0,742l154,0l0,-299C270,509 332,543 419,544C480,544 528,525 564,488C599,451 617,401 617,338M332,816l-122,0l-57,65l-58,-65l-121,0l108,148l141,0z"
   horiz-adv-x="675"
   unicode="ĥ" />
<glyph
   id="glyph634"
   d="M617,338l0,-338l-154,0l0,293C463,327 454,354 435,374C416,393 390,403 357,403C319,402 289,389 267,364C244,338 233,305 233,265l0,-265l-154,0l0,742l154,0l0,-299C270,509 332,543 419,544C480,544 528,525 564,488C599,451 617,401 617,338M431,-156C431,-181 423,-202 408,-218C392,-234 372,-242 347,-242C323,-242 303,-234 288,-217C272,-201 264,-181 264,-156C264,-131 272,-110 288,-94C303,-78 323,-70 347,-70C372,-70 392,-78 408,-94C423,-110 431,-131 431,-156z"
   horiz-adv-x="675"
   unicode="ḥ" />
<glyph
   id="glyph636"
   d="M74,538l154,0l0,-538l-154,0M234,691C234,666 226,645 211,629C195,613 175,605 150,605C126,605 106,613 91,630C75,646 67,666 67,691C67,716 75,737 91,753C106,769 126,777 150,777C175,777 195,769 211,753C226,737 234,716 234,691z"
   horiz-adv-x="302"
   unicode="i" />
<glyph
   id="glyph638"
   d="M74,538l154,0l0,-538l-154,0z"
   horiz-adv-x="302"
   unicode="ı" />
<glyph
   id="glyph640"
   d="M74,538l154,0l0,-538l-154,0M185,765l136,-53l-136,-110l-112,10z"
   horiz-adv-x="302"
   unicode="í" />
<glyph
   id="glyph642"
   d="M74,538l154,0l0,-538l-154,0M151,697C167,697 180,703 191,714C202,725 208,739 209,757l98,0C305,710 290,673 261,645C232,617 196,603 151,603C106,603 69,617 40,645C11,673 -4,710 -5,757l98,0C94,739 100,725 111,714C122,703 135,697 151,697z"
   horiz-adv-x="302"
   unicode="ĭ" />
<glyph
   id="glyph644"
   d="M74,538l154,0l0,-538l-154,0M330,612l-122,0l-57,65l-58,-65l-121,0l108,148l141,0z"
   horiz-adv-x="302"
   unicode="î" />
<glyph
   id="glyph646"
   d="M74,538l154,0l0,-538l-154,0M47,769l79,-157l-109,-10l-91,120M231,769l80,-157l-109,-10l-91,120z"
   horiz-adv-x="302"
   unicode="ȉ" />
<glyph
   id="glyph648"
   d="M74,538l154,0l0,-538l-154,0M134,687C134,666 128,649 115,635C102,621 85,614 65,614C44,614 27,621 14,635C1,649 -6,666 -6,687C-6,708 1,725 14,738C27,751 44,758 65,758C85,758 102,751 115,738C128,725 134,708 134,687M308,687C308,666 301,649 288,635C275,621 258,614 238,614C218,614 201,621 188,635C175,649 168,666 168,687C168,708 175,725 188,738C201,751 217,758 238,758C258,758 275,751 288,738C301,725 308,708 308,687z"
   horiz-adv-x="302"
   unicode="ï" />
<glyph
   id="glyph650"
   d="M74,538l154,0l0,-538l-154,0M127,671C127,651 121,634 108,621C95,607 78,600 58,600C38,600 22,607 9,621C-4,634 -11,651 -11,671C-11,692 -4,709 9,722C22,735 38,742 58,742C78,742 95,735 108,722C121,709 127,692 127,671M312,671C312,651 306,634 293,621C280,607 263,600 244,600C224,600 207,607 194,621C181,634 174,651 174,671C174,692 181,709 194,722C207,735 223,742 244,742C263,742 280,735 293,722C306,709 312,692 312,671M196,912l112,-70l-150,-82l-98,27z"
   horiz-adv-x="302"
   unicode="ḯ" />
<glyph
   id="glyph652"
   d="M74,538l154,0l0,-538l-154,0M234,691C234,666 226,645 211,629C195,613 175,605 150,605C126,605 106,613 91,630C75,646 67,666 67,691C67,716 75,737 91,753C106,769 126,777 150,777C175,777 195,769 211,753C226,737 234,716 234,691M234,-156C234,-181 226,-202 211,-218C195,-234 175,-242 150,-242C126,-242 106,-234 91,-217C75,-201 67,-181 67,-156C67,-131 75,-110 91,-94C106,-78 126,-70 150,-70C175,-70 195,-78 211,-94C226,-110 234,-131 234,-156z"
   horiz-adv-x="302"
   unicode="ị" />
<glyph
   id="glyph654"
   d="M74,538l154,0l0,-538l-154,0M116,765l104,-153l-112,-10l-128,110z"
   horiz-adv-x="302"
   unicode="ì" />
<glyph
   id="glyph656"
   d="M74,538l154,0l0,-538l-154,0M263,716C263,694 256,671 241,648C226,624 205,602 180,581l-72,31C121,625 132,638 140,652C147,666 151,679 151,690C151,698 148,704 143,709C138,714 131,716 123,716C111,716 99,712 86,703l-42,68C79,794 116,806 155,806C188,806 214,798 234,782C253,766 263,744 263,716z"
   horiz-adv-x="302"
   unicode="ỉ" />
<glyph
   id="glyph658"
   d="M74,538l154,0l0,-538l-154,0M1,603C3,650 18,687 45,716C72,744 107,758 150,758C193,758 229,744 256,716C283,687 297,650 298,603l-97,0C200,620 194,635 185,646C176,657 164,662 150,662C136,662 124,657 115,646C106,635 100,620 99,603z"
   horiz-adv-x="302"
   unicode="ȋ" />
<glyph
   id="glyph660"
   d="M74,538l154,0l0,-538l-154,0M234,691C234,666 226,645 211,629C195,613 175,605 150,605C126,605 106,613 91,630C75,646 67,666 67,691C67,716 75,737 91,753C106,769 126,777 150,777C175,777 195,769 211,753C226,737 234,716 234,691M315,-75C336,-76 351,-69 362,-56C373,-43 378,-23 378,2l0,536l153,0l0,-560C531,-77 515,-121 483,-152C451,-184 407,-200 351,-200C310,-200 273,-193 240,-179l32,112C287,-72 302,-74 315,-75M536,691C536,666 528,645 513,629C497,613 477,605 452,605C428,605 408,613 393,630C377,646 369,666 369,691C369,716 377,737 393,753C408,769 428,777 452,777C477,777 497,769 513,753C528,737 536,716 536,691z"
   horiz-adv-x="604"
   unicode="ĳ" />
<glyph
   id="glyph662"
   d="M74,538l154,0l0,-538l-154,0M15,735l271,0l0,-94l-271,0z"
   horiz-adv-x="302"
   unicode="ī" />
<glyph
   id="glyph664"
   d="M67,691C67,716 75,737 91,753C106,769 126,777 150,777C175,777 195,769 211,753C226,737 234,716 234,691C234,666 226,645 211,629C195,613 175,605 150,605C126,605 106,613 91,630C75,646 67,666 67,691M74,538l154,0l0,-538l-22,0C178,-20 158,-38 145,-53C132,-69 125,-85 125,-100C125,-118 133,-127 149,-127C160,-127 170,-124 179,-119l29,-88C176,-221 145,-228 115,-228C81,-228 54,-219 35,-201C15,-183 5,-158 5,-127C5,-79 28,-34 74,7z"
   horiz-adv-x="302"
   unicode="į" />
<glyph
   id="glyph666"
   d="M74,538l154,0l0,-538l-154,0M228,598C214,598 201,600 190,605C179,610 165,617 149,626C132,637 120,642 113,642C96,642 88,628 88,601l-92,0C-4,701 25,751 84,751C97,751 110,749 121,745C132,740 145,734 162,725C169,721 175,718 182,715C188,712 193,710 198,710C207,710 214,713 218,719C221,725 223,734 224,747l91,0C315,698 308,661 294,636C280,611 258,598 228,598z"
   horiz-adv-x="302"
   unicode="ĩ" />
<glyph
   id="glyph668"
   d="M13,-75C34,-76 49,-69 60,-56C71,-43 76,-23 76,2l0,536l153,0l0,-560C229,-77 213,-121 181,-152C149,-184 105,-200 49,-200C8,-200 -29,-193 -62,-179l32,112C-15,-72 0,-74 13,-75M234,691C234,666 226,645 211,629C195,613 175,605 150,605C126,605 106,613 91,630C75,646 67,666 67,691C67,716 75,737 91,753C106,769 126,777 150,777C175,777 195,769 211,753C226,737 234,716 234,691z"
   horiz-adv-x="298"
   unicode="j" />
<glyph
   id="glyph670"
   d="M13,-75C34,-76 49,-69 60,-56C71,-43 76,-23 76,2l0,536l153,0l0,-560C229,-77 213,-121 181,-152C149,-184 105,-200 49,-200C8,-200 -29,-193 -62,-179l32,112C-15,-72 0,-74 13,-75z"
   horiz-adv-x="298"
   unicode="ȷ" />
<glyph
   id="glyph672"
   d="M13,-75C34,-76 49,-69 60,-56C71,-43 76,-23 76,2l0,536l153,0l0,-560C229,-77 213,-121 181,-152C149,-184 105,-200 49,-200C8,-200 -29,-193 -62,-179l32,112C-15,-72 0,-74 13,-75M331,612l-122,0l-57,65l-58,-65l-121,0l108,148l141,0z"
   horiz-adv-x="298"
   unicode="ĵ" />
<glyph
   id="glyph674"
   d="M432,0l-130,219l-69,-73l0,-146l-154,0l0,742l154,0l0,-408l197,203l175,0l-197,-207l206,-330z"
   horiz-adv-x="619"
   unicode="k" />
<glyph
   id="glyph676"
   d="M432,0l-130,219l-69,-73l0,-146l-154,0l0,742l154,0l0,-408l197,203l175,0l-197,-207l206,-330M260,-59l130,0l-68,-170l-95,0z"
   horiz-adv-x="619"
   unicode="ķ" />
<glyph
   id="glyph678"
   d="M426,0l-130,220l-68,-72l0,-148l-154,0l0,538l154,0l0,-208l196,208l175,0l-198,-207l207,-331z"
   horiz-adv-x="613"
   unicode="ĸ" />
<glyph
   id="glyph680"
   d="M79,742l154,0l0,-742l-154,0z"
   horiz-adv-x="313"
   unicode="l" />
<glyph
   id="glyph682"
   d="M79,742l154,0l0,-742l-154,0M191,969l136,-53l-136,-110l-112,10z"
   horiz-adv-x="313"
   unicode="ĺ" />
<glyph
   id="glyph684"
   d="M79,742l154,0l0,-742l-154,0M307,742l125,0l-30,-212l-95,0z"
   horiz-adv-x="409"
   unicode="ľ" />
<glyph
   id="glyph686"
   d="M79,742l154,0l0,-742l-154,0M92,-59l130,0l-68,-170l-95,0z"
   horiz-adv-x="313"
   unicode="ļ" />
<glyph
   id="glyph688"
   d="M79,742l154,0l0,-742l-154,0M455,399C455,374 447,353 432,337C416,321 396,313 371,313C347,313 327,321 312,338C296,354 288,374 288,399C288,424 296,445 312,461C327,477 347,485 371,485C396,485 416,477 432,461C447,445 455,424 455,399z"
   horiz-adv-x="454"
   unicode="ŀ" />
<glyph
   id="glyph690"
   d="M79,742l154,0l0,-742l-154,0M240,-156C240,-181 232,-202 217,-218C201,-234 181,-242 156,-242C132,-242 112,-234 97,-217C81,-201 73,-181 73,-156C73,-131 81,-110 97,-94C112,-78 132,-70 156,-70C181,-70 201,-78 217,-94C232,-110 240,-131 240,-156z"
   horiz-adv-x="313"
   unicode="ḷ" />
<glyph
   id="glyph692"
   d="M79,742l154,0l0,-742l-154,0M326,-75C347,-76 362,-69 373,-56C384,-43 389,-23 389,2l0,536l153,0l0,-560C542,-77 526,-121 494,-152C462,-184 418,-200 362,-200C321,-200 284,-193 251,-179l32,112C298,-72 313,-74 326,-75M547,691C547,666 539,645 524,629C508,613 488,605 463,605C439,605 419,613 404,630C388,646 380,666 380,691C380,716 388,737 404,753C419,769 439,777 463,777C488,777 508,769 524,753C539,737 547,716 547,691z"
   horiz-adv-x="611"
   unicode="ǉ" />
<glyph
   id="glyph694"
   d="M79,742l154,0l0,-742l-154,0M5,-78l303,0l0,-94l-303,0z"
   horiz-adv-x="313"
   unicode="ḻ" />
<glyph
   id="glyph696"
   d="M390,533l0,-93l-106,-56l0,-384l-154,0l0,303l-107,-56l0,94l107,56l0,345l154,0l0,-264z"
   horiz-adv-x="409"
   unicode="ł" />
<glyph
   id="glyph698"
   d="M980,338l0,-338l-153,0l0,293C827,328 818,355 799,374C780,393 755,403 723,403C686,402 657,389 636,364C615,339 604,306 604,266l0,-266l-153,0l0,293C451,327 442,354 424,374C405,393 380,403 348,403C311,402 282,389 261,364C239,339 228,306 228,266l0,-266l-154,0l0,538l154,0l0,-93C265,510 326,543 410,544C455,544 494,533 525,512C556,490 579,459 592,420C609,461 635,491 668,512C701,533 740,543 786,544C845,544 893,526 928,489C963,452 980,401 980,338z"
   horiz-adv-x="1039"
   unicode="m" />
<glyph
   id="glyph700"
   d="M980,338l0,-338l-153,0l0,293C827,328 818,355 799,374C780,393 755,403 723,403C686,402 657,389 636,364C615,339 604,306 604,266l0,-266l-153,0l0,293C451,327 442,354 424,374C405,393 380,403 348,403C311,402 282,389 261,364C239,339 228,306 228,266l0,-266l-154,0l0,538l154,0l0,-93C265,510 326,543 410,544C455,544 494,533 525,512C556,490 579,459 592,420C609,461 635,491 668,512C701,533 740,543 786,544C845,544 893,526 928,489C963,452 980,401 980,338M611,-156C611,-181 603,-202 588,-218C572,-234 552,-242 527,-242C503,-242 483,-234 468,-217C452,-201 444,-181 444,-156C444,-131 452,-110 468,-94C483,-78 503,-70 527,-70C552,-70 572,-78 588,-94C603,-110 611,-131 611,-156z"
   horiz-adv-x="1039"
   unicode="ṃ" />
<glyph
   id="glyph702"
   d="M611,338l0,-338l-154,0l0,293C457,327 448,354 429,374C410,393 384,403 351,403C313,402 283,389 261,364C239,338 228,305 228,265l0,-265l-154,0l0,538l154,0l0,-94C265,509 327,543 414,544C474,544 522,525 558,488C593,451 611,401 611,338z"
   horiz-adv-x="670"
   unicode="n" />
<glyph
   id="glyph704"
   d="M611,338l0,-338l-154,0l0,293C457,327 448,354 429,374C410,393 384,403 351,403C313,402 283,389 261,364C239,338 228,305 228,265l0,-265l-154,0l0,538l154,0l0,-94C265,509 327,543 414,544C474,544 522,525 558,488C593,451 611,401 611,338M385,765l136,-53l-136,-110l-112,10z"
   horiz-adv-x="670"
   unicode="ń" />
<glyph
   id="glyph706"
   d="M40,700l108,0l-20,-261l-88,0M750,338l0,-338l-154,0l0,293C596,327 587,354 568,374C549,393 523,403 490,403C452,402 422,389 400,364C378,338 367,305 367,265l0,-265l-154,0l0,538l154,0l0,-94C404,509 466,543 553,544C613,544 661,525 697,488C732,451 750,401 750,338z"
   horiz-adv-x="809"
   unicode="ŉ" />
<glyph
   id="glyph708"
   d="M611,338l0,-338l-154,0l0,293C457,327 448,354 429,374C410,393 384,403 351,403C313,402 283,389 261,364C239,338 228,305 228,265l0,-265l-154,0l0,538l154,0l0,-94C265,509 327,543 414,544C474,544 522,525 558,488C593,451 611,401 611,338M409,759l121,0l-108,-148l-141,0l-109,148l122,0l58,-65z"
   horiz-adv-x="670"
   unicode="ň" />
<glyph
   id="glyph710"
   d="M611,338l0,-338l-154,0l0,293C457,327 448,354 429,374C410,393 384,403 351,403C313,402 283,389 261,364C239,338 228,305 228,265l0,-265l-154,0l0,538l154,0l0,-94C265,509 327,543 414,544C474,544 522,525 558,488C593,451 611,401 611,338M275,-59l130,0l-68,-170l-95,0z"
   horiz-adv-x="670"
   unicode="ņ" />
<glyph
   id="glyph712"
   d="M611,338l0,-338l-154,0l0,293C457,327 448,354 429,374C410,393 384,403 351,403C313,402 283,389 261,364C239,338 228,305 228,265l0,-265l-154,0l0,538l154,0l0,-94C265,509 327,543 414,544C474,544 522,525 558,488C593,451 611,401 611,338M434,691C434,666 426,645 411,629C395,613 375,605 350,605C326,605 306,613 291,630C275,646 267,666 267,691C267,716 275,737 291,753C306,769 326,777 350,777C375,777 395,769 411,753C426,737 434,716 434,691z"
   horiz-adv-x="670"
   unicode="ṅ" />
<glyph
   id="glyph714"
   d="M611,338l0,-338l-154,0l0,293C457,327 448,354 429,374C410,393 384,403 351,403C313,402 283,389 261,364C239,338 228,305 228,265l0,-265l-154,0l0,538l154,0l0,-94C265,509 327,543 414,544C474,544 522,525 558,488C593,451 611,401 611,338M423,-156C423,-181 415,-202 400,-218C384,-234 364,-242 339,-242C315,-242 295,-234 280,-217C264,-201 256,-181 256,-156C256,-131 264,-110 280,-94C295,-78 315,-70 339,-70C364,-70 384,-78 400,-94C415,-110 423,-131 423,-156z"
   horiz-adv-x="670"
   unicode="ṇ" />
<glyph
   id="glyph716"
   d="M611,338l0,-356C611,-57 603,-90 586,-117C569,-145 546,-166 517,-180C488,-194 457,-201 422,-201C374,-201 332,-189 295,-165l42,113C360,-66 381,-73 401,-73C418,-73 431,-68 442,-57C452,-47 457,-31 457,-10l0,303C457,327 448,354 429,374C410,393 384,403 351,403C313,402 283,389 261,364C239,338 228,305 228,265l0,-265l-154,0l0,538l154,0l0,-94C265,509 327,543 414,544C474,544 522,525 558,488C593,451 611,401 611,338z"
   horiz-adv-x="670"
   unicode="ŋ" />
<glyph
   id="glyph718"
   d="M611,338l0,-338l-154,0l0,293C457,327 448,354 429,374C410,393 384,403 351,403C313,402 283,389 261,364C239,338 228,305 228,265l0,-265l-154,0l0,538l154,0l0,-94C265,509 327,543 414,544C474,544 522,525 558,488C593,451 611,401 611,338M683,-75C704,-76 719,-69 730,-56C741,-43 746,-23 746,2l0,536l153,0l0,-560C899,-77 883,-121 851,-152C819,-184 775,-200 719,-200C678,-200 641,-193 608,-179l32,112C655,-72 670,-74 683,-75M904,691C904,666 896,645 881,629C865,613 845,605 820,605C796,605 776,613 761,630C745,646 737,666 737,691C737,716 745,737 761,753C776,769 796,777 820,777C845,777 865,769 881,753C896,737 904,716 904,691z"
   horiz-adv-x="968"
   unicode="ǌ" />
<glyph
   id="glyph720"
   d="M611,338l0,-338l-154,0l0,293C457,327 448,354 429,374C410,393 384,403 351,403C313,402 283,389 261,364C239,338 228,305 228,265l0,-265l-154,0l0,538l154,0l0,-94C265,509 327,543 414,544C474,544 522,525 558,488C593,451 611,401 611,338M188,-78l303,0l0,-94l-303,0z"
   horiz-adv-x="670"
   unicode="ṉ" />
<glyph
   id="glyph722"
   d="M611,338l0,-338l-154,0l0,293C457,327 448,354 429,374C410,393 384,403 351,403C313,402 283,389 261,364C239,338 228,305 228,265l0,-265l-154,0l0,538l154,0l0,-94C265,509 327,543 414,544C474,544 522,525 558,488C593,451 611,401 611,338M434,600C419,600 405,603 392,608C379,613 363,620 345,629C337,634 329,638 321,641C313,644 306,646 301,646C291,646 284,643 280,636C276,629 274,618 273,603l-91,0C182,651 189,688 204,714C218,740 241,753 274,753C289,753 303,751 316,746C329,741 345,733 363,724C384,712 398,706 407,706C417,706 424,710 428,717C432,724 434,735 435,749l91,0C526,702 519,665 505,639C490,613 467,600 434,600z"
   horiz-adv-x="670"
   unicode="ñ" />
<glyph
   id="glyph724"
   d="M605,269C605,215 593,167 569,126C545,84 511,52 468,29C424,6 374,-6 317,-6C260,-6 209,6 166,29C122,52 88,84 64,126C40,167 28,215 28,269C28,324 40,372 64,413C88,454 122,486 166,509C209,532 260,543 317,543C374,543 424,532 468,509C511,486 545,454 569,413C593,372 605,324 605,269M182,267C182,223 195,187 220,160C245,133 277,119 317,119C356,119 389,133 414,160C439,187 451,223 451,267C451,311 439,347 414,374C389,401 356,415 317,415C277,415 245,401 220,374C195,347 182,311 182,267z"
   horiz-adv-x="633"
   unicode="o" />
<glyph
   id="glyph726"
   d="M605,269C605,215 593,167 569,126C545,84 511,52 468,29C424,6 374,-6 317,-6C260,-6 209,6 166,29C122,52 88,84 64,126C40,167 28,215 28,269C28,324 40,372 64,413C88,454 122,486 166,509C209,532 260,543 317,543C374,543 424,532 468,509C511,486 545,454 569,413C593,372 605,324 605,269M182,267C182,223 195,187 220,160C245,133 277,119 317,119C356,119 389,133 414,160C439,187 451,223 451,267C451,311 439,347 414,374C389,401 356,415 317,415C277,415 245,401 220,374C195,347 182,311 182,267M351,765l136,-53l-136,-110l-112,10z"
   horiz-adv-x="633"
   unicode="ó" />
<glyph
   id="glyph728"
   d="M605,269C605,215 593,167 569,126C545,84 511,52 468,29C424,6 374,-6 317,-6C260,-6 209,6 166,29C122,52 88,84 64,126C40,167 28,215 28,269C28,324 40,372 64,413C88,454 122,486 166,509C209,532 260,543 317,543C374,543 424,532 468,509C511,486 545,454 569,413C593,372 605,324 605,269M182,267C182,223 195,187 220,160C245,133 277,119 317,119C356,119 389,133 414,160C439,187 451,223 451,267C451,311 439,347 414,374C389,401 356,415 317,415C277,415 245,401 220,374C195,347 182,311 182,267M317,697C333,697 346,703 357,714C368,725 374,739 375,757l98,0C471,710 456,673 427,645C398,617 362,603 317,603C272,603 235,617 206,645C177,673 162,710 161,757l98,0C260,739 266,725 277,714C288,703 301,697 317,697z"
   horiz-adv-x="633"
   unicode="ŏ" />
<glyph
   id="glyph730"
   d="M605,269C605,215 593,167 569,126C545,84 511,52 468,29C424,6 374,-6 317,-6C260,-6 209,6 166,29C122,52 88,84 64,126C40,167 28,215 28,269C28,324 40,372 64,413C88,454 122,486 166,509C209,532 260,543 317,543C374,543 424,532 468,509C511,486 545,454 569,413C593,372 605,324 605,269M182,267C182,223 195,187 220,160C245,133 277,119 317,119C356,119 389,133 414,160C439,187 451,223 451,267C451,311 439,347 414,374C389,401 356,415 317,415C277,415 245,401 220,374C195,347 182,311 182,267M496,612l-122,0l-57,65l-58,-65l-121,0l108,148l141,0z"
   horiz-adv-x="633"
   unicode="ô" />
<glyph
   id="glyph732"
   d="M605,269C605,215 593,167 569,126C545,84 511,52 468,29C424,6 374,-6 317,-6C260,-6 209,6 166,29C122,52 88,84 64,126C40,167 28,215 28,269C28,324 40,372 64,413C88,454 122,486 166,509C209,532 260,543 317,543C374,543 424,532 468,509C511,486 545,454 569,413C593,372 605,324 605,269M182,267C182,223 195,187 220,160C245,133 277,119 317,119C356,119 389,133 414,160C439,187 451,223 451,267C451,311 439,347 414,374C389,401 356,415 317,415C277,415 245,401 220,374C195,347 182,311 182,267M515,602l-134,0l-64,57l-65,-57l-134,0l111,115l174,0M362,899l112,-70l-150,-82l-98,27z"
   horiz-adv-x="633"
   unicode="ố" />
<glyph
   id="glyph734"
   d="M605,269C605,215 593,167 569,126C545,84 511,52 468,29C424,6 374,-6 317,-6C260,-6 209,6 166,29C122,52 88,84 64,126C40,167 28,215 28,269C28,324 40,372 64,413C88,454 122,486 166,509C209,532 260,543 317,543C374,543 424,532 468,509C511,486 545,454 569,413C593,372 605,324 605,269M182,267C182,223 195,187 220,160C245,133 277,119 317,119C356,119 389,133 414,160C439,187 451,223 451,267C451,311 439,347 414,374C389,401 356,415 317,415C277,415 245,401 220,374C195,347 182,311 182,267M400,-156C400,-181 392,-202 377,-218C361,-234 341,-242 316,-242C292,-242 272,-234 257,-217C241,-201 233,-181 233,-156C233,-131 241,-110 257,-94C272,-78 292,-70 316,-70C341,-70 361,-78 377,-94C392,-110 400,-131 400,-156M496,612l-122,0l-57,65l-58,-65l-121,0l108,148l141,0z"
   horiz-adv-x="633"
   unicode="ộ" />
<glyph
   id="glyph736"
   d="M605,269C605,215 593,167 569,126C545,84 511,52 468,29C424,6 374,-6 317,-6C260,-6 209,6 166,29C122,52 88,84 64,126C40,167 28,215 28,269C28,324 40,372 64,413C88,454 122,486 166,509C209,532 260,543 317,543C374,543 424,532 468,509C511,486 545,454 569,413C593,372 605,324 605,269M182,267C182,223 195,187 220,160C245,133 277,119 317,119C356,119 389,133 414,160C439,187 451,223 451,267C451,311 439,347 414,374C389,401 356,415 317,415C277,415 245,401 220,374C195,347 182,311 182,267M515,602l-134,0l-64,57l-65,-57l-134,0l111,115l174,0M259,899l135,-125l-97,-27l-151,82z"
   horiz-adv-x="633"
   unicode="ồ" />
<glyph
   id="glyph738"
   d="M605,269C605,215 593,167 569,126C545,84 511,52 468,29C424,6 374,-6 317,-6C260,-6 209,6 166,29C122,52 88,84 64,126C40,167 28,215 28,269C28,324 40,372 64,413C88,454 122,486 166,509C209,532 260,543 317,543C374,543 424,532 468,509C511,486 545,454 569,413C593,372 605,324 605,269M182,267C182,223 195,187 220,160C245,133 277,119 317,119C356,119 389,133 414,160C439,187 451,223 451,267C451,311 439,347 414,374C389,401 356,415 317,415C277,415 245,401 220,374C195,347 182,311 182,267M515,602l-134,0l-64,57l-65,-57l-134,0l111,115l174,0M403,847C403,812 379,779 332,746l-66,26C290,789 302,805 302,820C302,826 300,831 296,834C292,837 287,838 280,838C269,838 259,835 250,828l-40,58C243,907 277,917 311,917C340,917 362,910 379,897C395,884 403,867 403,847z"
   horiz-adv-x="633"
   unicode="ổ" />
<glyph
   id="glyph740"
   d="M605,269C605,215 593,167 569,126C545,84 511,52 468,29C424,6 374,-6 317,-6C260,-6 209,6 166,29C122,52 88,84 64,126C40,167 28,215 28,269C28,324 40,372 64,413C88,454 122,486 166,509C209,532 260,543 317,543C374,543 424,532 468,509C511,486 545,454 569,413C593,372 605,324 605,269M182,267C182,223 195,187 220,160C245,133 277,119 317,119C356,119 389,133 414,160C439,187 451,223 451,267C451,311 439,347 414,374C389,401 356,415 317,415C277,415 245,401 220,374C195,347 182,311 182,267M515,602l-134,0l-64,57l-65,-57l-134,0l111,115l174,0M396,751C380,751 365,753 351,758C337,763 321,769 302,778C300,779 293,782 282,787C270,792 260,794 253,794C242,794 234,791 229,784C224,777 222,767 222,754l-76,0C146,795 153,826 167,849C181,871 204,882 236,882C252,882 268,880 283,875C298,870 314,864 332,855C355,844 371,839 380,839C391,839 398,842 403,849C408,856 410,866 410,879l77,0C487,838 480,806 466,784C451,762 428,751 396,751z"
   horiz-adv-x="633"
   unicode="ỗ" />
<glyph
   id="glyph742"
   d="M605,269C605,215 593,167 569,126C545,84 511,52 468,29C424,6 374,-6 317,-6C260,-6 209,6 166,29C122,52 88,84 64,126C40,167 28,215 28,269C28,324 40,372 64,413C88,454 122,486 166,509C209,532 260,543 317,543C374,543 424,532 468,509C511,486 545,454 569,413C593,372 605,324 605,269M182,267C182,223 195,187 220,160C245,133 277,119 317,119C356,119 389,133 414,160C439,187 451,223 451,267C451,311 439,347 414,374C389,401 356,415 317,415C277,415 245,401 220,374C195,347 182,311 182,267M213,769l79,-157l-109,-10l-91,120M397,769l80,-157l-109,-10l-91,120z"
   horiz-adv-x="633"
   unicode="ȍ" />
<glyph
   id="glyph744"
   d="M605,269C605,215 593,167 569,126C545,84 511,52 468,29C424,6 374,-6 317,-6C260,-6 209,6 166,29C122,52 88,84 64,126C40,167 28,215 28,269C28,324 40,372 64,413C88,454 122,486 166,509C209,532 260,543 317,543C374,543 424,532 468,509C511,486 545,454 569,413C593,372 605,324 605,269M182,267C182,223 195,187 220,160C245,133 277,119 317,119C356,119 389,133 414,160C439,187 451,223 451,267C451,311 439,347 414,374C389,401 356,415 317,415C277,415 245,401 220,374C195,347 182,311 182,267M294,686C294,665 287,648 274,635C261,622 244,615 224,615C203,615 187,622 174,635C161,648 154,665 154,686C154,707 161,725 174,738C187,751 203,758 224,758C244,758 261,751 274,738C287,724 294,707 294,686M480,686C480,665 474,648 461,635C448,622 431,615 410,615C390,615 373,622 360,635C347,648 340,665 340,686C340,707 347,724 360,738C373,751 390,758 410,758C431,758 448,751 461,738C474,725 480,707 480,686z"
   horiz-adv-x="633"
   unicode="ö" />
<glyph
   id="glyph746"
   d="M605,269C605,215 593,167 569,126C545,84 511,52 468,29C424,6 374,-6 317,-6C260,-6 209,6 166,29C122,52 88,84 64,126C40,167 28,215 28,269C28,324 40,372 64,413C88,454 122,486 166,509C209,532 260,543 317,543C374,543 424,532 468,509C511,486 545,454 569,413C593,372 605,324 605,269M182,267C182,223 195,187 220,160C245,133 277,119 317,119C356,119 389,133 414,160C439,187 451,223 451,267C451,311 439,347 414,374C389,401 356,415 317,415C277,415 245,401 220,374C195,347 182,311 182,267M293,671C293,651 287,634 274,621C261,607 244,600 224,600C204,600 188,607 175,621C162,634 155,651 155,671C155,692 162,709 175,722C188,735 204,742 224,742C244,742 261,735 274,722C287,709 293,692 293,671M478,671C478,651 472,634 459,621C446,607 429,600 410,600C390,600 373,607 360,621C347,634 340,651 340,671C340,692 347,709 360,722C373,735 389,742 410,742C429,742 446,735 459,722C472,709 478,692 478,671M177,870l278,0l0,-90l-278,0z"
   horiz-adv-x="633"
   unicode="ȫ" />
<glyph
   id="glyph748"
   d="M605,269C605,215 593,167 569,126C545,84 511,52 468,29C424,6 374,-6 317,-6C260,-6 209,6 166,29C122,52 88,84 64,126C40,167 28,215 28,269C28,324 40,372 64,413C88,454 122,486 166,509C209,532 260,543 317,543C374,543 424,532 468,509C511,486 545,454 569,413C593,372 605,324 605,269M182,267C182,223 195,187 220,160C245,133 277,119 317,119C356,119 389,133 414,160C439,187 451,223 451,267C451,311 439,347 414,374C389,401 356,415 317,415C277,415 245,401 220,374C195,347 182,311 182,267M391,676C391,654 384,636 370,622C355,607 337,600 316,600C295,600 277,607 263,622C249,636 242,654 242,676C242,698 249,716 263,731C277,745 295,752 316,752C337,752 355,745 370,731C384,717 391,699 391,676M178,870l278,0l0,-90l-278,0z"
   horiz-adv-x="633"
   unicode="ȱ" />
<glyph
   id="glyph750"
   d="M605,269C605,215 593,167 569,126C545,84 511,52 468,29C424,6 374,-6 317,-6C260,-6 209,6 166,29C122,52 88,84 64,126C40,167 28,215 28,269C28,324 40,372 64,413C88,454 122,486 166,509C209,532 260,543 317,543C374,543 424,532 468,509C511,486 545,454 569,413C593,372 605,324 605,269M182,267C182,223 195,187 220,160C245,133 277,119 317,119C356,119 389,133 414,160C439,187 451,223 451,267C451,311 439,347 414,374C389,401 356,415 317,415C277,415 245,401 220,374C195,347 182,311 182,267M400,-156C400,-181 392,-202 377,-218C361,-234 341,-242 316,-242C292,-242 272,-234 257,-217C241,-201 233,-181 233,-156C233,-131 241,-110 257,-94C272,-78 292,-70 316,-70C341,-70 361,-78 377,-94C392,-110 400,-131 400,-156z"
   horiz-adv-x="633"
   unicode="ọ" />
<glyph
   id="glyph752"
   d="M605,269C605,215 593,167 569,126C545,84 511,52 468,29C424,6 374,-6 317,-6C260,-6 209,6 166,29C122,52 88,84 64,126C40,167 28,215 28,269C28,324 40,372 64,413C88,454 122,486 166,509C209,532 260,543 317,543C374,543 424,532 468,509C511,486 545,454 569,413C593,372 605,324 605,269M182,267C182,223 195,187 220,160C245,133 277,119 317,119C356,119 389,133 414,160C439,187 451,223 451,267C451,311 439,347 414,374C389,401 356,415 317,415C277,415 245,401 220,374C195,347 182,311 182,267M282,765l104,-153l-112,-10l-128,110z"
   horiz-adv-x="633"
   unicode="ò" />
<glyph
   id="glyph754"
   d="M605,269C605,215 593,167 569,126C545,84 511,52 468,29C424,6 374,-6 317,-6C260,-6 209,6 166,29C122,52 88,84 64,126C40,167 28,215 28,269C28,324 40,372 64,413C88,454 122,486 166,509C209,532 260,543 317,543C374,543 424,532 468,509C511,486 545,454 569,413C593,372 605,324 605,269M182,267C182,223 195,187 220,160C245,133 277,119 317,119C356,119 389,133 414,160C439,187 451,223 451,267C451,311 439,347 414,374C389,401 356,415 317,415C277,415 245,401 220,374C195,347 182,311 182,267M429,716C429,694 422,671 407,648C392,624 371,602 346,581l-72,31C287,625 298,638 306,652C313,666 317,679 317,690C317,698 314,704 309,709C304,714 297,716 289,716C277,716 265,712 252,703l-42,68C245,794 282,806 321,806C354,806 380,798 400,782C419,766 429,744 429,716z"
   horiz-adv-x="633"
   unicode="ỏ" />
<glyph
   id="glyph756"
   d="M679,578C679,541 669,508 648,481C627,454 598,435 561,426C590,381 605,328 605,269C605,215 593,167 569,126C545,84 511,52 468,29C424,6 374,-6 317,-6C260,-6 209,6 166,29C122,52 88,84 64,126C40,167 28,215 28,269C28,324 40,372 64,413C88,454 122,486 166,509C209,532 260,543 317,543C372,543 420,532 463,511C476,507 487,505 495,505C514,505 529,512 540,525C551,538 556,554 556,573C556,596 549,618 534,639l118,43C670,648 679,613 679,578M451,267C451,311 439,347 414,374C389,401 356,415 317,415C277,415 245,401 220,374C195,347 182,311 182,267C182,223 195,187 220,160C245,133 277,119 317,119C356,119 389,133 414,160C439,187 451,223 451,267z"
   horiz-adv-x="671"
   unicode="ơ" />
<glyph
   id="glyph758"
   d="M679,578C679,541 669,508 648,481C627,454 598,435 561,426C590,381 605,328 605,269C605,215 593,167 569,126C545,84 511,52 468,29C424,6 374,-6 317,-6C260,-6 209,6 166,29C122,52 88,84 64,126C40,167 28,215 28,269C28,324 40,372 64,413C88,454 122,486 166,509C209,532 260,543 317,543C372,543 420,532 463,511C476,507 487,505 495,505C514,505 529,512 540,525C551,538 556,554 556,573C556,596 549,618 534,639l118,43C670,648 679,613 679,578M451,267C451,311 439,347 414,374C389,401 356,415 317,415C277,415 245,401 220,374C195,347 182,311 182,267C182,223 195,187 220,160C245,133 277,119 317,119C356,119 389,133 414,160C439,187 451,223 451,267M351,765l136,-53l-136,-110l-112,10z"
   horiz-adv-x="671"
   unicode="ớ" />
<glyph
   id="glyph760"
   d="M679,578C679,541 669,508 648,481C627,454 598,435 561,426C590,381 605,328 605,269C605,215 593,167 569,126C545,84 511,52 468,29C424,6 374,-6 317,-6C260,-6 209,6 166,29C122,52 88,84 64,126C40,167 28,215 28,269C28,324 40,372 64,413C88,454 122,486 166,509C209,532 260,543 317,543C372,543 420,532 463,511C476,507 487,505 495,505C514,505 529,512 540,525C551,538 556,554 556,573C556,596 549,618 534,639l118,43C670,648 679,613 679,578M451,267C451,311 439,347 414,374C389,401 356,415 317,415C277,415 245,401 220,374C195,347 182,311 182,267C182,223 195,187 220,160C245,133 277,119 317,119C356,119 389,133 414,160C439,187 451,223 451,267M399,-156C399,-181 391,-202 376,-218C360,-234 340,-242 315,-242C291,-242 271,-234 256,-217C240,-201 232,-181 232,-156C232,-131 240,-110 256,-94C271,-78 291,-70 315,-70C340,-70 360,-78 376,-94C391,-110 399,-131 399,-156z"
   horiz-adv-x="671"
   unicode="ợ" />
<glyph
   id="glyph762"
   d="M679,578C679,541 669,508 648,481C627,454 598,435 561,426C590,381 605,328 605,269C605,215 593,167 569,126C545,84 511,52 468,29C424,6 374,-6 317,-6C260,-6 209,6 166,29C122,52 88,84 64,126C40,167 28,215 28,269C28,324 40,372 64,413C88,454 122,486 166,509C209,532 260,543 317,543C372,543 420,532 463,511C476,507 487,505 495,505C514,505 529,512 540,525C551,538 556,554 556,573C556,596 549,618 534,639l118,43C670,648 679,613 679,578M451,267C451,311 439,347 414,374C389,401 356,415 317,415C277,415 245,401 220,374C195,347 182,311 182,267C182,223 195,187 220,160C245,133 277,119 317,119C356,119 389,133 414,160C439,187 451,223 451,267M282,765l104,-153l-112,-10l-128,110z"
   horiz-adv-x="671"
   unicode="ờ" />
</font>
</defs>
</svg>
